Заходят многие - остаются лучшие!
Здравствуйте Гость ( Вход | Регистрация ) Выслать повторно письмо для активации
Вход
Ваше имя Пароль Забыли пароль?
Запомнить Вас?
Войти скрытым?



 Правила раздела Новые сообщения раздела  


 

 Гонорар за предательство / Взятка / La Mazzeta (1978) [Полная версия], Трагикомедия;Реж.-С.Корбуччи;Роли-Н.Манфреди,У.Тоньяцци,П.Стоппа
SanSan48
  №1 Отправлено: 25.03.2019 - 15:13


"Спартак" - ЧЕМПИОН!!!

Группа: Пользователи
Регистрация: 28.12.2009
Сообщений: 2043
Обитает:
Последний раз был:
вчера в 19:40




Гонорар за предательство / Взятка / La Mazzeta (1978) [Полная версия]



Жанр: Трагикомедия
Выпущено: Италия, Filmauro S.r.l.
Год выпуска: 1978
Премьера (мир): 17 марта 1978 (Италия), 10 января 1979 (Франция), 29 марта 1979 (Бельгия)
Премьера (СССР): июнь 1981
Сценаристы: Лучано Де Крешенцо / Luciano De Crescenzo, Массимо Де Рита / Massimo De Rita, Ардуино Майури / Arduino Maiuri, Эльвио Порта / Elvio Porta
Оператор: Луиджи Кувейлер / Luigi Kuveiller
Композитор: Пино Даниэле / Pino Daniele
Художники: Джантито Буркьелларо / Giantito Burchiellaro, Бруна Пармезан / Bruna Parmesan
Монтажёр: Амедео Сальфа / Amedeo Salfa

Режиссёр: Серджио Корбуччи / Sergio Corbucci

В ролях:
Нино Манфреди / Nino Manfredi ... Sasà Iovine - дублирует Анатолий Равикович
Уго Тоньяцци / Ugo Tognazzi ... Il commissario Assenza - дублирует Игорь Ефимов
Паоло Стоппа / Paolo Stoppa ... don Michele Miletti - дублирует Иван Краско
Мариса Лаурито / Marisa Laurito ... Luisella - дублирует Людмила Старицына
Имма Пиро / Imma Piro ... Giulia Miletti - дублирует Елена Ставрогина
Дженнаро Ди Наполи / Gennaro Di Napoli ... Nicola Casali - дублирует Владимир Татосов
Мариза Мерлини / Marisa Merlini ... Elena Miletti
Сальваторе Боргезе / Sal Borgese ... Tonino
Джованни Боргезе / Giovanni Borgese ... Pasquale
Бенито Стефанелли / Benito Stefanelli ... Improta
Джакомо Фурия / Giacomo Furia ... Antonio
Лилли Фуриа / Lilly Furia ... Signora Catelli
Пьетро Де Вико / Pietro De Vico ... Guardiano posteggio auto
Нино Винджелли / Nino Vingelli ... Catelli
Макс Турилли / Max Turilli ... Prete

Описание: По роману Аттиллио Веральди (Attilio Veraldi).
Неаполитанец Саза Джовине едва сводит концы с концами, сбивая деньги с обманутых клиентов, представляясь адвокатом. Когда крупный промышленник Микеле Милетти предлагает ему кругленькую сумму за обнаружение сбежавшей с важными документами дочери, он соглашается и попадает в карусель страшных убийств и приключений.…

Дополнительная информация:
Релиз:

Автор рипа: pmv

Большое спасибо за:
- аудиодорожку с советским дубляжом - Хорошему человеку
- исходный DVD5 - Urasik
- синхронизацию звуковой дорожки с советским дубляжом - Urasik
- перевод и озвучка вырезанных в прокатной копии эпизодов – Urasik

Фильм дублирован на киностудии «Ленфильм» в 1980 году и выпущен в прокат в июне 1981 года.
Режиссёр дубляжа: Александр Абрамов
Звукооператор: И.Волкова
Автор русского текста: Л.Шешукова
Редактор: Галина Чаплина
Роли дублировали: Анатолий Равикович, Игорь Ефимов, Людмила Старицына, Елена Ставрогина, Владимир Татосов, Иван Краско, Гелий Сысоев, Лев Жуков

IMDb = 7,5/10 (72) - https://www.imdb.com/title/tt0077918/
Кинопоиск = - (38) - https://www.kinopoisk.ru/film/168702/

ВНИМАНИЕ!!! РИП ФОРМАТА mkv (кодек H.264) ВОСПРОИЗВОДИТСЯ НЕ НА ВСЕХ БЫТОВЫХ ВИДЕОПЛЕЕРАХ!!!

Параметры файла:
Название: La Mazzetta (1978. rus_dub+ita).mkv
Качество видео: DVDrip-AVC
Формат видео: MKV
Размер: 1,47 ГБ (1 583 145 709 байт)
Продолжительность: 01:46:17
Видео: AVC (H264), 720x384 (1.85:1), 25 fps, 1600 kbps, 0.231 Bits/Pixel
Аудио #1: AC3, 48 KHz, stereo (2 ch), 192 kbps – советский дубляж (к/с «Ленфильм)
Аудио #2: AC3, 48 KHz, stereo (2 ch), 192 kbps - итальянский



General
Unique ID : 105228804102611113283388799148574574343 (0x4F2A549A8E2C698F83EFB14A06EF0707)
Complete name : D:\torrents\La Mazzetta (1978. rus_dub+ita).mkv
Format : Matroska
Format version : Version 4 / Version 2
File size : 1.47 GiB
Duration : 1 h 46 min
Overall bit rate : 1 986 kb/s
Encoded date : UTC 2019-03-24 18:39:15
Writing application : mkvmerge v32.0.0 ('Astral Progressions') 64-bit
Writing library : libebml v1.3.7 + libmatroska v1.5.0

Video
ID : 1
Format : AVC
Format/Info : Advanced Video Codec
Format profile : High@L4.1
Format settings, CABAC : Yes
Format settings, RefFrames : 16 frames
Codec ID : V_MPEG4/ISO/AVC
Duration : 1 h 46 min
Bit rate : 1 600 kb/s
Width : 720 pixels
Height : 384 pixels
Display aspect ratio : 1.85:1
Frame rate mode : Constant
Frame rate : 25.000 FPS
Color space : YUV
Chroma subsampling : 4:2:0
Bit depth : 8 bits
Scan type : Progressive
Bits/(Pixel*Frame) : 0.231
Stream size : 1.19 GiB (81%)
Writing library : x264 core 146 r2538 121396c
Encoding settings : cabac=1 / ref=16 / deblock=1:0:0 / analyse=0x3:0x133 / me=umh / subme=10 / psy=1 / psy_rd=1.00:0.00 / mixed_ref=1 / me_range=24 / chroma_me=1 / trellis=2 / 8x8dct=1 / cqm=0 / deadzone=21,11 / fast_pskip=1 / chroma_qp_offset=-2 / threads=48 / lookahead_threads=3 / sliced_threads=0 / nr=0 / decimate=1 / interlaced=0 / bluray_compat=0 / constrained_intra=0 / bframes=8 / b_pyramid=2 / b_adapt=2 / b_bias=0 / direct=3 / weightb=1 / open_gop=0 / weightp=2 / keyint=250 / keyint_min=25 / scenecut=40 / intra_refresh=0 / rc_lookahead=60 / rc=2pass / mbtree=1 / bitrate=1600 / ratetol=1.0 / qcomp=0.60 / qpmin=0 / qpmax=69 / qpstep=4 / cplxblur=20.0 / qblur=0.5 / ip_ratio=1.40 / aq=1:1.00
Language : Italian
Default : Yes
Forced : No

Audio #1
ID : 2
Format : AC-3
Format/Info : Audio Coding 3
Format settings, Endianness : Big
Codec ID : A_AC3
Duration : 1 h 46 min
Bit rate mode : Constant
Bit rate : 192 kb/s
Channel(s) : 2 channels
Channel positions : Front: L R
Sampling rate : 48.0 kHz
Frame rate : 31.250 FPS (1536 SPF)
Bit depth : 16 bits
Compression mode : Lossy
Stream size : 146 MiB (10%)
Language : Russian
Service kind : Complete Main
Default : Yes
Forced : No

Audio #2
ID : 3
Format : AC-3
Format/Info : Audio Coding 3
Format settings, Endianness : Big
Codec ID : A_AC3
Duration : 1 h 46 min
Bit rate mode : Constant
Bit rate : 192 kb/s
Channel(s) : 2 channels
Channel positions : Front: L R
Sampling rate : 48.0 kHz
Frame rate : 31.250 FPS (1536 SPF)
Bit depth : 16 bits
Compression mode : Lossy
Delay relative to video : 350 ms
Stream size : 146 MiB (10%)
Language : Italian
Service kind : Complete Main
Default : No
Forced : No








МОИ РАЗДАЧИ НА ФЕНИКСе: ЗДЕСЬ




Это сообщение отредактировал SanSan48 - 25.03.2019 - 16:40


--------------------
"Спартак" - ЧЕМПИОН!!!

Скрыть подпись
Medik
№2 Отправлено: 25.03.2019 - 16:08


Прохожий

Группа: Потребители
Регистрация: 19.06.2007
Сообщений: 18
Обитает:
Последний раз был:
вчера в 15:13




Архивы в порядке. Спасибо!
Top
SanSan48
№3 Отправлено: 25.03.2019 - 16:39


"Спартак" - ЧЕМПИОН!!!

Группа: Пользователи
Регистрация: 28.12.2009
Сообщений: 2043
Обитает:
Последний раз был:
вчера в 19:40




Цитата
( Medik @ 25.03.2019 - 16:08)
Архивы в порядке. Спасибо!

Medik, Благодарю за сообщение!

Приятного всем просмотра!


--------------------
"Спартак" - ЧЕМПИОН!!!

Скрыть подпись
Top
evdokim63
№4 Отправлено: 25.03.2019 - 20:06


Завсегдатай

Группа: Потребители
Регистрация: 9.05.2015
Сообщений: 431
Обитает:
Последний раз был:
позавчера в 17:11




Всё ОК Спасибо
Top
skurin
№5 Отправлено: 26.03.2019 - 19:13


Прохожий

Группа: Новички
Регистрация: 24.10.2011
Сообщений: 17
Обитает:
Последний раз был:
14.06.2019 - 15:47




Все в порядке, большое спасибо за редкий фильм!
Top
fathezzz
№6 Отправлено: 31.03.2019 - 03:08


Посетитель

Группа: Потребители
Регистрация: 19.08.2010
Сообщений: 164
Обитает:
Последний раз был:
вчера в 23:46




Присоединяюсь..
Понравилась также игра актёров. Манфреди - на высоте..
Top
1 человек просматривает эту тему (1 гость)
« Предыдущая тема | Советский дубляж | Следующая тема »


 



[Script Execution time: 0,0370]   [24 queries used]   [GZIP enabled]