Заходят многие - остаются лучшие!
Здравствуйте Гость ( Вход | Регистрация ) Выслать повторно письмо для активации
Вход
Ваше имя Пароль Забыли пароль?
Запомнить Вас?
Войти скрытым?



 Правила раздела Новые сообщения раздела  


 

 Мама, я жив! / Mama, ich lebe! (1976), Военная драма, режиссёр Конрад Вольф, советские и немецкие актёры
SanSan48
  №1 Отправлено: 2.05.2019 - 19:31


"Спартак" - ЧЕМПИОН!!!

Группа: Пользователи
Регистрация: 28.12.2009
Сообщений: 2047
Обитает:
Последний раз был:
cегодня в 17:33




Мама, я жив! / Mama, ich lebe! (1976)



Предыдущая раздача:
3.03.2010 (DVDrip)

Жанр: Драма, военный
Выпущено: СССР, Германия (ГДР), DEFA (Deutsche Film AG), Ленфильм, Совинфильм
Год выпуска: 1977
Премьера (мир): 24 февраля 1977 (Германия (ГДР)), июнь 1977 (Германия (ФРГ), Международный Берлинский кинофестиваль), 6 октября 1978 (Германия (ФРГ), Премьера на ТВ), 22 февраля 1979 (Венгрия)
Премьера (СССР): 8 декабря 1980
Сценаристы: Конрад Вольф / Konrad Wolf, Вольфганг Кольхаазе / Wolfgang Kohlhaase
Оператор: Вернер Бергман / Werner Bergmann
Композитор: Райнер Бём / Rainer Böhm
Художники: Альфред Хиршмайер / Alfred Hirschmeier, Вернер Бергеманн / Werner Bergemann
Монтажёр: Эвелин Каров / Evelyn Carow

Режиссёр: Конрад Вольф / Konrad Wolf

Петер Прагер / Peter Prager ... Гюнтер Бекер / Günther Becker
Уве Цербе / Uwe Zerbe ... Вальтер Панконин / Walter Pankonin
Эберхард Кирхберг / Eberhard Kirchberg ... Карл Коралевски / Karl Koralewski
Детлеф Гисс / Detlef Gieß ... Хельмут Кушке / Helmuth Kuschke
Донатас Банионис ... Данос Маурис, майор, филолог-германист
Маргарита Терехова ... Светлана, военный переводчик
Иван Лапиков ... генерал
Евгений Киндинов ... Виктор Глунский, капитан
Болот Бейшеналиев ... Чингиз Касумович, офицер
Михаил Васьков ... Коля, солдат
Анатолий Папанов ... хозяин дома
Анатолий Рудаков ... Вася, адъютант генерала
Герман Колушкин ... шофёр
Светлана Крючкова ... военная в штабе Чингиза Касумовича
Евгений Шутов ... старшина, в титрах не указан
Норберт Кристиан / Norbert Christian ...
Юрген Хенч / Jürgen Hentsch ...
Дитер Монтаг / Dieter Montag ...
Томас Нойман / Thomas Neumann ...
Мартин Треттау / Martin Trettau ...
Клаус Пионтек / Klaus Piontek ... рассказчик от автора (на немецком озвучка)
Иве Костова-Нювирт / Ive Kostova-Neuwirth ... Rußische Offizierin

Описание: Фильм повествует о судьбе четырех немецких военнопленных в СССР, которые в плену согласились получить подготовку, чтобы быть использованными против германского вермахта. У каждого из этих солдат своя история, свой мотив, почему он идет на такой шаг. Их товарищи относятся к ним с презрением, а в Красной Армии они поначалу чужие. Насколько сложна их ситуация, они начинают понимать лишь перед первой боевой операцией…

Дополнительная информация:
Релиз:

Исходник найден в сети – Спасибо MrMoto.

Автор рипа: pmv

Большое спасибо за:
- аудиодорожку с советской одноголосой озвучкой - christm, Menen
- синхронизацию звуковой дорожки с советским дубляжом - pmv

Фильм озвучен на киностудии им. М.Горького в 1980 году и выпущен в прокат 8 декабря 1980 года.
Режиссёр озвучания: Исай Гуров
Звукооператор: Дмитрий Белевич
Литературный перевод: Елена Аникина
Редактор: Лариса Железнова
Текст читает: Валерий Рыжаков

* Песни в фильме исполняет Жанна Бичевская.

* В данном фильме присутствую полные русские субтитры, в том числе и на отсутствующие ранее эпизоды на немецком языке без перевода и озвучки.

IMDb = 6,9/10 (73) - https://www.imdb.com/title/tt0074848/
Кинопоиск = 5.958 (266) - https://www.kinopoisk.ru/film/46525/

ВНИМАНИЕ!!! РИП ФОРМАТА mkv (кодек H.264) ВОСПРОИЗВОДИТСЯ НЕ НА ВСЕХ БЫТОВЫХ ВИДЕОПЛЕЕРАХ!!!

Параметры файла:
Название: Mama, ich lebe! (1976, DVD-rip, rus+ger+sub_rus,eng,ger,fre,spa,por,lit).mkv
Качество видео: HDrip-AVC
Формат видео: MKV
Размер: 1,46 ГБ (1 569 386 344 байт)
Продолжительность: 01:39:24
Перевод: Профессиональный (одноголосый, озвучание) – к/с им. М.Горького (озвучка Валерий Рыжаков)
Субтитры: русские
Субтитры: английские, немецкие, французские, испанские, португальские, литовские
Оригинальная аудиодорожка: немецкий
Видео: AVC (H264), 1072x648 (1.66:1), 25 fps, 1710 kbps, 0.098 Bits/Pixel
Аудио #1: AC3, 48 KHz, stereo (2 ch), 192 kbps – советская озвучка (Валерий Рыжаков)
Аудио #2: AC3, 48 KHz, stereo (2 ch), 192 kbps - немецкий



General
Unique ID : 11219926443148916467723310551835283770 (0x870E115498BD5718E927830545B113A)
Complete name : D:\torrents\Mama, ich lebe! (1976, HD-rip, rus+ger+sub_rus,eng,ger,fre,spa,por,lit).mkv
Format : Matroska
Format version : Version 4 / Version 2
File size : 1.45 GiB
Duration : 1h 39mn
Overall bit rate : 2 094 Kbps
Encoded date : UTC 2019-04-29 13:13:32
Writing application : mkvmerge v33.1.0 ('Primrose') 64-bit
Writing library : libebml v1.3.7 + libmatroska v1.5.0
DURATION : 01:39:23.560000000
NUMBER_OF_FRAMES : 149089
NUMBER_OF_BYTES : 1273886824
_STATISTICS_WRITING_APP : mkvmerge v33.1.0 ('Primrose') 64-bit
_STATISTICS_WRITING_DATE_UTC : 2019-04-29 13:13:32
_STATISTICS_TAGS : BPS DURATION NUMBER_OF_FRAMES NUMBER_OF_BYTES

Video
ID : 1
Format : AVC
Format/Info : Advanced Video Codec
Format profile : High@L4.1
Format settings, CABAC : Yes
Format settings, ReFrames : 11 frames
Codec ID : V_MPEG4/ISO/AVC
Duration : 1h 39mn
Bit rate : 1 710 Kbps
Width : 1 072 pixels
Height : 648 pixels
Display aspect ratio : 1.654
Frame rate mode : Constant
Frame rate : 25.000 fps
Color space : YUV
Chroma subsampling : 4:2:0
Bit depth : 8 bits
Scan type : Progressive
Bits/(Pixel*Frame) : 0.098
Stream size : 1.16 GiB (80%)
Writing library : x264 core 146 r2538 121396c
Encoding settings : cabac=1 / ref=11 / deblock=1:0:0 / analyse=0x3:0x133 / me=umh / subme=10 / psy=1 / psy_rd=1.00:0.00 / mixed_ref=1 / me_range=24 / chroma_me=1 / trellis=2 / 8x8dct=1 / cqm=0 / deadzone=21,11 / fast_pskip=1 / chroma_qp_offset=-2 / threads=48 / lookahead_threads=5 / sliced_threads=0 / nr=0 / decimate=1 / interlaced=0 / bluray_compat=0 / constrained_intra=0 / bframes=8 / b_pyramid=2 / b_adapt=2 / b_bias=0 / direct=3 / weightb=1 / open_gop=0 / weightp=2 / keyint=250 / keyint_min=25 / scenecut=40 / intra_refresh=0 / rc_lookahead=60 / rc=2pass / mbtree=1 / bitrate=1710 / ratetol=1.0 / qcomp=0.60 / qpmin=0 / qpmax=69 / qpstep=4 / cplxblur=20.0 / qblur=0.5 / ip_ratio=1.40 / aq=1:1.00
Language : German
Default : Yes
Forced : No

Audio #1
ID : 2
Format : AC-3
Format/Info : Audio Coding 3
Mode extension : CM (complete main)
Format settings, Endianness : Big
Codec ID : A_AC3
Duration : 1h 39mn
Bit rate mode : Constant
Bit rate : 192 Kbps
Channel(s) : 2 channels
Channel positions : Front: L R
Sampling rate : 48.0 KHz
Bit depth : 16 bits
Compression mode : Lossy
Stream size : 136 MiB (9%)
Language : Russian
Default : Yes
Forced : No

Audio #2
ID : 3
Format : AC-3
Format/Info : Audio Coding 3
Mode extension : CM (complete main)
Format settings, Endianness : Big
Codec ID : A_AC3
Duration : 1h 39mn
Bit rate mode : Constant
Bit rate : 192 Kbps
Channel(s) : 2 channels
Channel positions : Front: L R
Sampling rate : 48.0 KHz
Bit depth : 16 bits
Compression mode : Lossy
Stream size : 136 MiB (9%)
Language : German
Default : No
Forced : No

Text #1
ID : 4
Format : UTF-8
Codec ID : S_TEXT/UTF8
Codec ID/Info : UTF-8 Plain Text
Language : Russian
Default : Yes
Forced : No

Text #2
ID : 5
Format : UTF-8
Codec ID : S_TEXT/UTF8
Codec ID/Info : UTF-8 Plain Text
Language : English
Default : No
Forced : No

Text #3
ID : 6
Format : UTF-8
Codec ID : S_TEXT/UTF8
Codec ID/Info : UTF-8 Plain Text
Language : German
Default : No
Forced : No

Text #4
ID : 7
Format : UTF-8
Codec ID : S_TEXT/UTF8
Codec ID/Info : UTF-8 Plain Text
Language : French
Default : No
Forced : No

Text #5
ID : 8
Format : UTF-8
Codec ID : S_TEXT/UTF8
Codec ID/Info : UTF-8 Plain Text
Language : Spanish
Default : No
Forced : No

Text #6
ID : 9
Format : UTF-8
Codec ID : S_TEXT/UTF8
Codec ID/Info : UTF-8 Plain Text
Language : Portuguese
Default : No
Forced : No

Text #7
ID : 10
Format : UTF-8
Codec ID : S_TEXT/UTF8
Codec ID/Info : UTF-8 Plain Text
Language : Lithuanian
Default : No
Forced : No








МОИ РАЗДАЧИ НА ФЕНИКСе: ЗДЕСЬ




Это сообщение отредактировал SanSan48 - 3.05.2019 - 09:26


--------------------
"Спартак" - ЧЕМПИОН!!!

Скрыть подпись


kyo
№2 Отправлено: 2.05.2019 - 21:07


Живёт здесь

Группа: Потребители
Регистрация: 21.07.2007
Сообщений: 2291
Обитает:
На форуме с:
cегодня в 18:59




Архивы в порядке, спасибо !
Top
SanSan48
№3 Отправлено: 3.05.2019 - 07:38


"Спартак" - ЧЕМПИОН!!!

Группа: Пользователи
Регистрация: 28.12.2009
Сообщений: 2047
Обитает:
Последний раз был:
cегодня в 17:33




Цитата
( kyo @ 2.05.2019 - 21:07)
Архивы в порядке, спасибо !

kyo, Благодарю за сообщение!


--------------------
"Спартак" - ЧЕМПИОН!!!

Скрыть подпись
Top
SanSan48
№4 Отправлено: 9.05.2019 - 12:36


"Спартак" - ЧЕМПИОН!!!

Группа: Пользователи
Регистрация: 28.12.2009
Сообщений: 2047
Обитает:
Последний раз был:
cегодня в 17:33




ВСЕХ ПОЗДРАВЛЯЮ с 9 мая - ДНЁМ ВЕЛИКОЙ ПОБЕДЫ!!!

Всем хорошего первомайского настроения и отличных впечатлений от просмотра интересного фильма!!!


--------------------
"Спартак" - ЧЕМПИОН!!!

Скрыть подпись
Top
1 человек просматривает эту тему (1 гость)
« Предыдущая тема | Советский дубляж | Следующая тема »


 



[Script Execution time: 0,0348]   [24 queries used]   [GZIP enabled]