Заходят многие - остаются лучшие!
Здравствуйте Гость ( Вход | Регистрация ) Выслать повторно письмо для активации
Вход
Ваше имя Пароль Забыли пароль?
Запомнить Вас?
Войти скрытым?



Новые сообщения раздела  

 

 Довмонт (2016). Слово о Мече и Князе (2011), документальные фильмы, история
Nadejdaenergia
  №1 Отправлено: 9.08.2017 - 16:04


Когда всё плохое уходит, остаётся только хорошее.

Группа: Модераторы
Регистрация: 21.03.2012
Сообщений: 5352
Обитает:
Последний раз был:
позавчера в 15:12




Довмонт (2016). Слово о Мече и Князе (2011)




В раздачу включены два документальных фильма, посвящённых князю Довмонту и его легендарному мечу.

1. Слово о мече и князе. 2011г. Фильм Алексея Олиферука
Описание

Производство: ГТРК «Россия-1 – Санкт-Петербург»
Режиссёр: Алексей Олиферук
Оператор-постановщик: Игорь Старостин
Монтаж: Даниил Куцевич
Авторская группа: Максим Коршев, Игорь Коровин, Лев Баранов, Алексей Олиферук
Музыка: Сергей Гасанов
Редактор: Елена Егорова
Спецтехника: Данила Богорад
Графическое оформление: Студия «КиС»
Звукорежиссёр: Антон Мовсин
Группы реконструкторов: «Русская дружина», «Меченосец» и Дмитрий Коровкин
Язык: русский, в отдельных местах с русским закадровым переводом
Продолжительность: 00:43:00
Видео: 448 x 368 , DivX 5.x/6.x 25 fps ~1981 kbps avg, 0.481 bit/pixel
Аудио: 0x0055 MPEG-1 Layer 3 , 44,1 kHz, CBR 192 kb/s tot , Stereo avg

Описание: Так называется новый специальный проект телеканала "Россия-1 - Санкт-Петербург" - фильм Алексея Олиферука, посвященный загадке уникального памятника оружейного искусства - меча святого Тимофея Псковского.

В  XIII веке князь Тимофей, по происхождению литовский правитель Довмонт, был призван на княжение в Псков. 33 года опытный воин, возглавивший русскую дружину, защищал купеческую столицу. Он выиграл все семь отмеченных в летописи сражений, после смерти князя в 1299 году на его надгробие в Свято-Троицком соборе был положен, как сказано в летописи, "на утверждение граду Пскову" меч, обладавший необъяснимой мистической силой. Форма меча Довмонта была необычна для своего времени, а символика на клинке указывала на западно-европейские корни этого оружия. Разгадать его тайну и попытались создатели фильма.



MediaInfoLib - v0.7.70
Complete name : Slovo.o.metce.i.kniaze.2011.fenixclub.com.avi
Format : AVI
Format/Info : Audio Video Interleave
File size : 672 MiB
Duration : 43mn 0s
Overall bit rate : 2 183 Kbps
Writing application : VirtualDubMod 1.5.10.3 | www.virtualdub-fr.org || (build 2550/release)
Writing library : VirtualDubMod build 2550/release

Video
ID : 0
Format : MPEG-4 Visual
Format profile : Advanced Simple@L5
Format settings, BVOP : 1
Format settings, QPel : No
Format settings, GMC : No warppoints
Format settings, Matrix : Default (MPEG)
Codec ID : DX50
Codec ID/Hint : DivX 5
Duration : 43mn 0s
Bit rate : 1 981 Kbps
Width : 448 pixels
Height : 368 pixels
Display aspect ratio : 1.217
Frame rate : 25.000 fps
Color space : YUV
Chroma subsampling : 4:2:0
Bit depth : 8 bits
Scan type : Progressive
Compression mode : Lossy
Bits/(Pixel*Frame) : 0.481
Stream size : 610 MiB (91%)
Writing library : XviD 1.2.1 (UTC 2008-12-04)

Audio
ID : 1
Format : MPEG Audio
Format version : Version 1
Format profile : Layer 3
Codec ID : 55
Codec ID/Hint : MP3
Duration : 43mn 0s
Bit rate mode : Constant
Bit rate : 192 Kbps
Channel(s) : 2 channels
Sampling rate : 44.1 KHz
Compression mode : Lossy
Stream size : 59.1 MiB (9%)
Alignment : Split accross interleaves
Interleave, duration : 40 ms (1.00 video frame)
Interleave, preload duration : 500 ms
Writing library : LAME3.99r
Encoding settings : -m s -V 4 -q 0 -lowpass 18.6 -b 192







2. ДОВМОНТ. 2016г. фильм Никиты Ефимова
Описание

Производство: ГТРК «Псков»
Автор сценария и режиссёр: Никита Ефимов
Оператор: Мурад Камалов
Монтаж: Александр Михайлов
Операторы: Денис Алексеев, Иван Лопаев
Съёмки с квадрокоптера: Алексей Бакуменко
Звукорежиссёр: Анна Зуева, Александр Михайлов
Художник компьютерной графики: Полина Тихомирова, Андрей Сальников
Текст читал: Никита Ефимов, Кирилл Радион
Продолжительность: 00:20:17
Видео: 720 x 408 , DivX 5.x/6.x 25 fps ~1900 kbps avg, 0.259 bit/pixel
Аудио: 0x0055 MPEG-1 Layer 3 , 44,1 kHz, CBR 192 kb/s tot , Stereo avg

Описание: «Довмонт» - историко-документальный фильм корреспондента ГТРК «Псков» Никиты Ефимова, рассказывающий о жизни великого псковского князя.

«Небесный покровитель и защитник Пскова. Талантливый полководец и опытный воин, не проигравший ни одного сражения. Прославленный князь, правивший Псковом 33 года до самой своей смерти. Дольше на Псковской земле не властвовал никто. Но что действительно реально известно, и почему псковского святого и благоверного князя Довмонта на своей исторической родине называют предателем и цареубийцей?» Разобраться, где факты, а где легенды и мифы, пробует Никита Ефимов.

Фильм рекомендован всем, кто интересуется историей родного края.
Возрастное ограничение (12+)



MediaInfoLib - v0.7.70

Complete name : Dovmont.2017.Nikita.Efimov.fenixclub.com.avi
Format : AVI
Format/Info : Audio Video Interleave
File size : 305 MiB
Duration : 20mn 17s
Overall bit rate : 2 102 Kbps
Writing application : VirtualDubMod 1.5.10.3 | www.virtualdub-fr.org || (build 2550/release)
Writing library : VirtualDubMod build 2550/release

Video
ID : 0
Format : MPEG-4 Visual
Format profile : Advanced Simple@L5
Format settings, BVOP : 1
Format settings, QPel : No
Format settings, GMC : No warppoints
Format settings, Matrix : Default (MPEG)
Codec ID : DX50
Codec ID/Hint : DivX 5
Duration : 20mn 17s
Bit rate : 1 900 Kbps
Width : 720 pixels
Height : 408 pixels
Display aspect ratio : 16:9
Frame rate : 25.000 fps
Color space : YUV
Chroma subsampling : 4:2:0
Bit depth : 8 bits
Scan type : Progressive
Compression mode : Lossy
Bits/(Pixel*Frame) : 0.259
Stream size : 276 MiB (90%)
Writing library : XviD 1.2.1 (UTC 2008-12-04)

Audio
ID : 1
Format : MPEG Audio
Format version : Version 1
Format profile : Layer 3
Codec ID : 55
Codec ID/Hint : MP3
Duration : 20mn 17s
Bit rate mode : Constant
Bit rate : 192 Kbps
Channel(s) : 2 channels
Sampling rate : 44.1 KHz
Compression mode : Lossy
Stream size : 27.9 MiB (9%)
Alignment : Split accross interleaves
Interleave, duration : 40 ms (1.00 video frame)
Interleave, preload duration : 500 ms
Writing library : LAME3.99r
Encoding settings : -m s -V 4 -q 0 -lowpass 18.6 -b 192





Исходный материал найден в Сети.

На каждый фильм - самостоятельный архив. Архивы созданы архиватором RAR и снабжены sfv-проверочниками. Раздача рассчитана на месяц.

Просьба первым скачавшим сообщить о состоянии архивов.

Раздача аудиокниги "Довмонтов меч"




AlexeyTuzh
№2 Отправлено: 9.08.2017 - 16:16


Вечный думатель

Группа: Администраторы
Регистрация: 15.07.2008
Сообщений: 4674
Обитает:
На форуме с:
cегодня в 21:07




Оба архива прекрасно скачались и собрались!
Top
Nadejdaenergia
№3 Отправлено: 10.08.2017 - 06:48


Когда всё плохое уходит, остаётся только хорошее.

Группа: Модераторы
Регистрация: 21.03.2012
Сообщений: 5352
Обитает:
Последний раз был:
позавчера в 15:12




Цитата
( AlexeyTuzh @ 9.08.2017 - 20:16)
Оба архива прекрасно скачались и собрались!

Замечательно! happy_fly.gif
Top
1 человек просматривает эту тему (1 гость)
« Предыдущая тема | Летопись времён и идей | Следующая тема »


 



[Script Execution time: 0,0372]   [23 queries used]   [GZIP enabled]