Здравствуйте Гость ( Вход | Регистрация ) Выслать повторно письмо для активации
Вход
Ваше имя Пароль Забыли пароль?
Запомнить Вас?
Войти скрытым?



Новые сообщения раздела  

 

 Возвращение. Кино и православие. Судьба человека (2017), Цикл программ "Возвращение" Автор программы - Татьяна Вольск
Alevtina
  №1 Отправлено: 9.08.2017 - 16:56


Время камни собирать...

Группа: Аксакалы
Регистрация: 12.02.2009
Сообщений: 5601
Обитает:
На форуме с:
cегодня в 06:10




Возвращение. Кино и православие. Судьба человека



Год выпуска: 2017

Страна: Россия

Режиссер: Татьяна Тарасова, Александр Мещеряков

Оператор-постановщик: Виталий Пересыпкин

Автор и ведущий: Татьяна Вольская

Автор идеи: Ирина Глебова

Жанр: Развлекательно-познавательное


Описание:

Цикл передач о тех картинах отечественного кинематографа, в которых тема православия, тема вечных христианских ценностей выражена в яркой, убедительно-художественной форме.

Передача, в которой каждый найдет для себя что-то новое и интересное. Новые, уникальные открытия, раскрывающие живой и неживой мир, законы природы и человеческой души.

4 фильм из 14:"Судьба человека".


Предыдущие раздачи цикла:

1 фильм "Восхождение"
2 фильм "Летят журавли"
3 фильм "Баллада о солдате"

За постер спасибо bornik


Media-info:


Format : AVI
Format/Info : Audio Video Interleave
File size : 392 MiB
Duration : 25mn 38s
Overall bit rate : 2 136 Kbps
Writing application : VirtualDubMod 1.5.10.2 (build 2540/release)
Writing library : VirtualDubMod build 2540/release

Video
ID : 0
Format : MPEG-4 Visual
Format profile : Advanced Simple@L5
Format settings, BVOP : 1
Format settings, QPel : No
Format settings, GMC : No warppoints
Format settings, Matrix : Default (H.263)
Muxing mode : Packed bitstream
Codec ID : XVID
Codec ID/Hint : XviD
Duration : 25mn 38s
Bit rate : 1 998 Kbps
Width : 720 pixels
Height : 400 pixels
Display aspect ratio : 16:9
Frame rate : 25.000 fps
Color space : YUV
Chroma subsampling : 4:2:0
Bit depth : 8 bits
Scan type : Progressive
Compression mode : Lossy
Bits/(Pixel*Frame) : 0.278
Stream size : 366 MiB (94%)
Writing library : XviD 65

Audio
ID : 1
Format : MPEG Audio
Format version : Version 1
Format profile : Layer 3
Mode : Joint stereo
Mode extension : MS Stereo
Codec ID : 55
Codec ID/Hint : MP3
Duration : 25mn 38s
Bit rate mode : Constant
Bit rate : 128 Kbps
Channel(s) : 2 channels
Sampling rate : 48.0 KHz
Compression mode : Lossy
Stream size : 23.5 MiB (6%)
Alignment : Aligned on interleaves
Interleave, duration : 40 ms (1.00 video frame)
Interleave, preload duration : 504 ms
Writing library : LAME3.98r
Encoding settings : -m j -V 4 -q 3 -lowpass 17 -b 128



Скриншоты:






Если вы хотите, чтобы вас автоматически ставили в очередь на следующие выпуски данного цикла, - сообщите об этом в теме последней раздачи.

Записались: Nadejdaenergia, ajlinn




Это сообщение отредактировал Alevtina - 13.10.2017 - 16:39


--------------------

Прохожие, купите Доброту!
Лишь за улыбку! Разве ж это много!
Исполните заветную мечту…
И хоть одну из Заповедей Бога!
Снимите маски «гордых» и «крутых»
Купите, хоть немножечко, Терпенья.
И ощутите сердцем, хоть на миг,
Всю прелесть и восторг благодаренья!
Сегодня, АКЦИЯ на Совесть и Любовь!
Притормозите «хаммер» свой, иль «буммер»!
Купите! И волнуйте свою кровь!
От этого ещё никто не умер!


Скрыть подпись


ajlinn
№2 Отправлено: 9.08.2017 - 19:43


аксакал

Группа: Потребители
Регистрация: 16.05.2012
Сообщений: 526
Обитает:
Последний раз был:
cегодня в 00:17





ОГРОМНОЕ СПАСИБО!!!

Всё скачалось, распаковалось и собралось)))
Top
Alevtina
№3 Отправлено: 9.08.2017 - 21:15


Время камни собирать...

Группа: Аксакалы
Регистрация: 12.02.2009
Сообщений: 5601
Обитает:
На форуме с:
cегодня в 06:10




ajlinn, очень хорошо!


--------------------

Прохожие, купите Доброту!
Лишь за улыбку! Разве ж это много!
Исполните заветную мечту…
И хоть одну из Заповедей Бога!
Снимите маски «гордых» и «крутых»
Купите, хоть немножечко, Терпенья.
И ощутите сердцем, хоть на миг,
Всю прелесть и восторг благодаренья!
Сегодня, АКЦИЯ на Совесть и Любовь!
Притормозите «хаммер» свой, иль «буммер»!
Купите! И волнуйте свою кровь!
От этого ещё никто не умер!


Скрыть подпись
Top
1 человек просматривает эту тему (1 гость)
« Предыдущая тема | Мир и люди искусства | Следующая тема »


 



[Script Execution time: 0,0192]   [23 queries used]   [GZIP enabled]