Заходят многие - остаются лучшие!
Здравствуйте Гость ( Вход | Регистрация ) Выслать повторно письмо для активации
Вход
Ваше имя Пароль Забыли пароль?
Запомнить Вас?
Войти скрытым?



 Правила раздела Новые сообщения раздела  


 

 Прекрасные времена в Шпессарте / Herrliche Zeiten im Spessart (1967), Комедия,фэнтези;Реж-К.Хоффманн;Роли-Л.Пульвер, Х.Ляйпниц, В.Бах
SanSan48
  №1 Отправлено: 9.08.2017 - 19:37


"Спартак" - ЧЕМПИОН!!!

Группа: Пользователи
Регистрация: 28.12.2009
Сообщений: 1786
Обитает:
Последний раз был:
cегодня в 20:56




Прекрасные времена в Шпессарте / Herrliche Zeiten im Spessart (1967)



Предыдущие раздачи:
08.01.2009 (VHSrip) (Архив)
30.12.2009 (DVDRip)
26.11.2008 (VHSrip)
09.10.2007 (VHSrip)
01.02.2007 (VHSrip)

Жанр: Комедия, фэнтези
Выпущено: Германия (ФРГ), Independent Film, Central Cinema Company Film (CCC)
Год выпуска: 1967
Премьера (мир): 21 сентября 1967 (Германия (ФРГ))
Премьера (СССР): 23 ноября 1970 (Москва)
Сценаристы: Гюнтер Нойманн / Günter Neumann
Оператор: Рихард Ангст / Richard Angst
Композитор: Франц Гроте / Franz Grothe
Художники: Изабелла Шлихтинг / Isabella Schlichting, Вернер Шлихтинг / Werner Schlichting, Никола Хёльц / Nikola Hoeltz, Элизабет Урбанчич / Elisabeth Urbancic
Монтажёр: Гизела Халлер / Gisela Haller

Режиссер: Курт Хоффманн / Kurt Hoffmann

В ролях:
Лизелотта Пульвер / Liselotte Pulver ... Anneliese
Харальд Ляйпниц / Harald Leipnitz ... Frank Green
Виви Бах / Vivi Bach ... Rosalinde
Ханнелоре Эльснер / Hannelore Elsner ... Johanna
Татьяна Зайс / Tatjana Sais ... Frau Mümmelmann
Иоахим Теге / Joachim Teege ... Hugo
Рудольф Ромберг / Rudolf Rhomberg ... Onkel Max
Ганс Рихтер / Hans Richter ... Toni
Катрин Аккерман / Kathrin Ackermann ... Katrin
Клаус Шварцкопф / Klaus Schwarzkopf ... Roland
Питер Кэпелл / Peter Capell ... Bürgermeister
Пауль Эссер / Paul Esser ... Mönch
Сибилла Гиллес / Sibille Gilles ...
Эвальд Венк / Ewald Wenck ...
Эрих Фидлер / Erich Fiedler ...

Описание:
Третий фильм трилогии пародийных комедий о привидениях рассказывает о событиях, случившихся в отеле «Шпессарт», где его владелица Анна-Луиза Зандау готовится к свадьбе с американским офицером Фрэнком Грином…

Дополнительная информация: Релиз:

Автор рипа: pmv

Исходник найден в сети.

Фильм дублирован творческим объединением киноактёра киностудии «Мосфильм» в 1970 году.
Режиссёр дубляжа: Евгений Алексеев
Звукооператор: Нинель Калиниченко
Русский синхронный текст: Зинаида Целиковская
Редактор: Лидия Балашова
Роли дублировали: Антонина Кончакова, Феликс Яворский, Георгий Вицин, Николай Грабе, Константин Тыртов, Владимир Балашов, Нина Никитина, Нина Зорская, Яков Беленький

* В эпизодах, пропущенных в советском дубляже, вставлен многоголосый перевод.

ВНИМАНИЕ!!! РИП ФОРМАТА mkv (кодек H.264) ВОСПРОИЗВОДИТСЯ НЕ НА ВСЕХ БЫТОВЫХ ВИДЕОПЛЕЕРАХ!!!

IMDb = 4,5/10 (126) - http://www.imdb.com/title/tt0061762/
Кинопоиск = 6.391 (88) - https://www.kinopoisk.ru/film/94629/

Параметры файла:
Название файла: Herrliche Zeiten im Spessart (1967, HDrip, rus_dub+ger).mkv
Качество видео: BDRip
Формат видео: MKV
Размер: 1,45 ГБ (1 561 597 835 bytes)
Продолжительность: 01:40:47
Перевод: Профессиональный (дублированный) – советский дубляж к/с «Союзмультфильм»
Оригинальная аудиодорожка: немецкий
Видео: AVC (H264), 1072x640 (1.675:1), 25 fps, 1680 kbps, 0.098 Bits/Pixel
Аудио #1: AC3, 48 kHz, stereo (2 ch), 192 kbps - советский дубляж
Аудио #2: AC3, 48 kHz, stereo (2 ch), 192 kbps - немецкий



General
Unique ID : 207074638105524484582571382143031686953 (0x9BC91FE76D8444F5B75CC78FCA3FB729)
Complete name : D:\ещккутеы\Herrliche Zeiten im Spessart (1967, HDrip, rus_dub+ger).mkv
Format : Matroska
Format version : Version 4 / Version 2
File size : 1.45 GiB
Duration : 1 h 40 min
Overall bit rate : 2 066 kb/s
Encoded date : UTC 2017-08-08 00:47:52
Writing application : mkvmerge v14.0.0 ('Flow') 64bit
Writing library : libebml v1.3.4 + libmatroska v1.4.5

Video
ID : 1
Format : AVC
Format/Info : Advanced Video Codec
Format profile : High@L4.1
Format settings, CABAC : Yes
Format settings, ReFrames : 12 frames
Codec ID : V_MPEG4/ISO/AVC
Duration : 1 h 40 min
Bit rate : 1 680 kb/s
Width : 1 072 pixels
Height : 640 pixels
Display aspect ratio : 5:3
Frame rate mode : Constant
Frame rate : 25.000 FPS
Color space : YUV
Chroma subsampling : 4:2:0
Bit depth : 8 bits
Scan type : Progressive
Bits/(Pixel*Frame) : 0.098
Stream size : 1.18 GiB (81%)
Writing library : x264 core 146 r2538 121396c
Encoding settings : cabac=1 / ref=12 / deblock=1:0:0 / analyse=0x3:0x133 / me=umh / subme=10 / psy=1 / psy_rd=1.00:0.00 / mixed_ref=1 / me_range=24 / chroma_me=1 / trellis=2 / 8x8dct=1 / cqm=0 / deadzone=21,11 / fast_pskip=1 / chroma_qp_offset=-2 / threads=48 / lookahead_threads=5 / sliced_threads=0 / nr=0 / decimate=1 / interlaced=0 / bluray_compat=0 / constrained_intra=0 / bframes=8 / b_pyramid=2 / b_adapt=2 / b_bias=0 / direct=3 / weightb=1 / open_gop=0 / weightp=2 / keyint=250 / keyint_min=25 / scenecut=40 / intra_refresh=0 / rc_lookahead=60 / rc=2pass / mbtree=1 / bitrate=1680 / ratetol=1.0 / qcomp=0.60 / qpmin=0 / qpmax=69 / qpstep=4 / cplxblur=20.0 / qblur=0.5 / ip_ratio=1.40 / aq=1:1.00
Language : German
Default : Yes
Forced : No

Audio #1
ID : 2
Format : AC-3
Format/Info : Audio Coding 3
Mode extension : CM (complete main)
Format settings, Endianness : Big
Codec ID : A_AC3
Duration : 1 h 40 min
Bit rate mode : Constant
Bit rate : 192 kb/s
Channel(s) : 2 channels
Channel positions : Front: L R
Sampling rate : 48.0 kHz
Frame rate : 31.250 FPS (1536 spf)
Bit depth : 16 bits
Compression mode : Lossy
Stream size : 138 MiB (9%)
Language : Russian
Default : Yes
Forced : No

Audio #2
ID : 3
Format : AC-3
Format/Info : Audio Coding 3
Mode extension : CM (complete main)
Format settings, Endianness : Big
Codec ID : A_AC3
Duration : 1 h 40 min
Bit rate mode : Constant
Bit rate : 192 kb/s
Channel(s) : 2 channels
Channel positions : Front: L R
Sampling rate : 48.0 kHz
Frame rate : 31.250 FPS (1536 spf)
Bit depth : 16 bits
Compression mode : Lossy
Stream size : 138 MiB (9%)
Language : German
Default : No
Forced : No








ПРИЯТНОГО ВСЕМ ПРОСМОТРА!

МОИ РАЗДАЧИ НА ФЕНИКСе: ЗДЕСЬ




Это сообщение отредактировал SanSan48 - 16.08.2017 - 19:52


--------------------
"Спартак" - ЧЕМПИОН!!!

Скрыть подпись
vjub58
№2 Отправлено: 9.08.2017 - 19:54


Практикующий эсквайр

Группа: Аксакалы
Регистрация: 6.12.2005
Сообщений: 4553
Обитает:
Последний раз был:
cегодня в 20:17




Спасибо, все ОК. pozdrav_buket.gif
Top
wider2
№3 Отправлено: 10.08.2017 - 05:30


Старожил

Группа: Потребители
Регистрация: 17.10.2006
Сообщений: 956
Обитает:
Последний раз был:
cегодня в 05:22




А как вам всем сценарий?
Не кажется ли он , по прошествии 50 лет, слегка наивным? smail.gif
Top
mazer
№4 Отправлено: 10.08.2017 - 08:08


Прохожий

Группа: Потребители
Регистрация: 15.12.2014
Сообщений: 10
Обитает:
Последний раз был:
позавчера в 05:40




спасибо скачал
Top
pushistiy
№5 Отправлено: 10.08.2017 - 18:05


Старожил

Группа: Потребители
Регистрация: 8.12.2013
Сообщений: 575
Последний раз был:
cегодня в 17:41




А ну-ка качнём, что-ли ! wink2.gif Авось, лучше того что у меня уже есть happy_fly.gif
P.S. Да, немного получше, чем имел. Но дело-то не в этом : Столь убойной антивоенной комедии, тем более немецкой, не припомню ни до, ни после этой трилогии.. и особенно хорош имеено этот, последний, фильм. Великолепная постановка. Браво всем pozdrav_buket.gif


Это сообщение отредактировал pushistiy - 10.08.2017 - 18:16
Top
SanSan48
№6 Отправлено: 16.08.2017 - 13:22


"Спартак" - ЧЕМПИОН!!!

Группа: Пользователи
Регистрация: 28.12.2009
Сообщений: 1786
Обитает:
Последний раз был:
cегодня в 20:56




ПРОСЬБА КО ВСЕМ!!!

Помогите, пожалуйста, достать прокатную версию этого фильма.
Или на худой конец, помогите с информацией по авторам советского
дубляжа: режиссёр, звукооператор, переводчик текста на русский,
и актёры, дублировавшие роли.

Конечно, прокатную копию иметь будет лучше, но всё равно заранее
говорю всем, кто поможет, СПАСИБО!!!


--------------------
"Спартак" - ЧЕМПИОН!!!

Скрыть подпись
Top
Dims888
№7 Отправлено: 16.08.2017 - 18:24


любитель животных

Группа: Потребители
Регистрация: 8.04.2012
Сообщений: 213
Последний раз был:
cегодня в 18:37




Цитата
( SanSan48 @ 16.08.2017 - 13:22)
ПРОСЬБА КО ВСЕМ!!!

Помогите, пожалуйста, достать прокатную версию этого фильма.
Или на худой конец, помогите с информацией по авторам советского
дубляжа: режиссёр, звукооператор, переводчик текста на русский,
и актёры, дублировавшие роли.

Конечно, прокатную копию иметь будет лучше, но всё равно заранее
говорю всем, кто поможет, СПАСИБО!!!

Держите ссылку на облако.
Отрезал кусок с прокатной копии.

https://cloud.mail.ru/public/BdLx/fgawSAehU
Top
SanSan48
№8 Отправлено: 16.08.2017 - 19:54


"Спартак" - ЧЕМПИОН!!!

Группа: Пользователи
Регистрация: 28.12.2009
Сообщений: 1786
Обитает:
Последний раз был:
cегодня в 20:56




Цитата
( Dims888 @ 16.08.2017 - 18:24)
Держите ссылку на облако.
Отрезал кусок с прокатной копии.

https://cloud.mail.ru/public/BdLx/fgawSAehU

Dims888, Большое спасибо за помощь!


--------------------
"Спартак" - ЧЕМПИОН!!!

Скрыть подпись
Top
1 человек просматривает эту тему (1 гость)
« Предыдущая тема | Советский дубляж | Следующая тема »


 



[Script Execution time: 0,0432]   [24 queries used]   [GZIP enabled]