Заходят многие - остаются лучшие!
Здравствуйте Гость ( Вход | Регистрация ) Выслать повторно письмо для активации
Вход
Ваше имя Пароль Забыли пароль?
Запомнить Вас?
Войти скрытым?



 Правила раздела Новые сообщения раздела  


 

 Приготовиться к бою / Stand by for Action (1942), военная драма / в ролях Роберт Тейлор, Чарльз Лотон
surzhoks
  №1 Отправлено: 9.08.2017 - 19:57


Старожил

Группа: Аксакалы
Регистрация: 17.03.2008
Сообщений: 967
Обитает:
Последний раз был:
21.10.2017 - 17:04




Приготовиться к бою / Stand by for Action


Страна: США
Студия: Metro-Goldwyn-Mayer (MGM)
Жанр: военный, драма
Год выпуска: 1942
Продолжительность: 01:49:01
Режиссер: Роберт З. Леонард / Robert Z. Leonard
Композитор: Ленни Хэйтон / Lennie Hayton
В ролях:
Роберт Тейлор / Robert Taylor ... Lieut. Gregg Masterman
Чарльз Лотон / Charles Laughton ... Rear Admiral Stephen Thomas
Брайан Донлеви / Brian Donlevy ... Lieut. Cmdr. Martin J. Roberts
Уолтер Бреннан / Walter Brennan ... Chief Yeoman Henry Johnson
Мэрилин Максвелл / Marilyn Maxwell ... Audrey Carr
Генри О’Нилл / Henry O'Neill ... Cmdr. Stone M.C
Марта Линден / Marta Linden ... Mary Collins
Чилл Уиллс / Chill Wills ... Chief Boatswain's Mate Jenks
Дагласс Дамбрилл / Douglass Dumbrille ... Captain Ludlow
Ричард Куайн / Richard Quine ... Ensign Lindsay
Уильям Таннен / William Tannen ... Flag Lieut. Dudley
Дуглас Фоули / Douglas Fowley ... Ensign Martin

Описание: На военной базе на Западном побережье сразу по вступлении Америки во Вторую Мировую войну выпускник Гарварда Грег Мастерман, помощник контр-адмирала Стефана "Железные Штаны" Томаса навлекает на себя гнев старшего по званию командора-лейтенанта Мартина Робертса, так как Робертс счёл, что Мастерман задерживает выход его судна в море. Когда Робертс идёт к Томасу жаловаться, Томас узнаёт в нём сослуживца по Первой Мировой и назначает его капитаном на эсминец "Уоррен".
Фильм посвящён боевым действиям на Тихом океане.


[b]Доп. информация
:
Огромное спасибо всем причастным к релизу:
рип - [i]Магда
,
перевод фильма - karlivanovich,
озвучивание фильма (по русским субтитрам)- fiendover (Виктор Рутилов),
работа со звуком Нордер,
реавторинг исходного DVD- alinto,
финансовая поддержка перевода и озвучивания фильма:
alinto, bvedargh, ironviking, lafajet, Магда, surzhoks, -Holo-, leoder, innominate, Dreenkens, gelom, milka131

Архивы созданы RAR-архиватором с добавлением 3% на восстановление и снабжены sfv-проверочником.
Просьба к первому скачавшему отписаться о сохранности архивов на источнике раздачи.

Раздача рассчитана на 2 месяца. На просмотр линка и скачивание 5 дней!
В случае если вы встали в очередь, а затем отказываетесь от скачивания без объяснения причин, возможен отказ в последующих моих раздачах.



Полное имя :Stand by for Action.1942.DVDRip.avi
Формат : AVI
Формат/Информация : Audio Video Interleave
Размер файла : 1,61 Гбайт
Продолжительность : 1 ч. 49 м.
Общий поток : 2109 Кбит/сек
Программа кодирования : VirtualDubMod 1.5.4.1 (build 2178/release)
Библиотека кодирования : VirtualDubMod build 2178/release

Видео
Идентификатор : 0
Формат : MPEG-4 Visual
Профиль формата : Advanced Simple@L5
Параметр BVOP формата : 2
Параметр QPel формата : Нет
Параметр GMC формата : Без точки перехода
Параметр матрицы формата : Default (H.263)
Идентификатор кодека : DX50
Идентификатор кодека/Подсказка : DivX 5
Продолжительность : 1 ч. 49 м.
Битрейт : 1711 Кбит/сек
Ширина : 640 пикселей
Высота : 480 пикселей
Соотношение сторон : 4:3
Частота кадров : 23,976 кадра/сек
Цветовое пространство : YUV
Субдискретизация насыщенности : 4:2:0
Битовая глубина : 8 бит
Тип развёртки : Прогрессивная
Метод сжатия : С потерями
Бит/(Пиксели*Кадры) : 0.232
Размер потока : 1,30 Гбайт (81%)
Библиотека кодирования : XviD 73

Аудио #1
Идентификатор : 1
Формат : AC-3
Формат/Информация : Audio Coding 3
Расширение режима : CM (complete main)
Параметр Endianness формата : Big
Идентификатор кодека : 2000
Продолжительность : 1 ч. 49 м.
Вид битрейта : Постоянный
Битрейт : 192 Кбит/сек
Каналы : 2 канала
Расположение каналов : Front: L R
Частота : 48,0 КГц
Битовая глубина : 16 бит
Метод сжатия : С потерями
Размер потока : 150 Мбайт (9%)
Выравнивание : Разделение по промежуткам
Продолжительность промежутка : 42 мс. (1,00 видеокадр)
Время предзагрузки промежутка : 500 мс.

Аудио #2
Идентификатор : 2
Формат : AC-3
Формат/Информация : Audio Coding 3
Расширение режима : CM (complete main)
Параметр Endianness формата : Big
Идентификатор кодека : 2000
Продолжительность : 1 ч. 49 м.
Вид битрейта : Постоянный
Битрейт : 192 Кбит/сек
Каналы : 2 канала
Расположение каналов : Front: L R
Частота : 48,0 КГц
Битовая глубина : 16 бит
Метод сжатия : С потерями
Размер потока : 150 Мбайт (9%)
Выравнивание : Разделение по промежуткам
Продолжительность промежутка : 42 мс. (1,00 видеокадр)
Время предзагрузки промежутка : 500 мс.




--------------------
Искусство откладывать деньги сводится к умению сказать “нет” потребительскому обществу.

Скрыть подпись


vjub58
№2 Отправлено: 9.08.2017 - 20:23


Практикующий эсквайр

Группа: Аксакалы
Регистрация: 6.12.2005
Сообщений: 4590
Обитает:
Последний раз был:
вчера в 23:44




Спасибо, все ОК. pozdrav_buket.gif
Top
1 человек просматривает эту тему (1 гость)
« Предыдущая тема | Зарубежные фильмы | Следующая тема »


 



[Script Execution time: 0,0313]   [23 queries used]   [GZIP enabled]