Заходят многие - остаются лучшие!
Здравствуйте Гость ( Вход | Регистрация ) Выслать повторно письмо для активации
Вход
Ваше имя Пароль Забыли пароль?
Запомнить Вас?
Войти скрытым?



 Правила раздела Новые сообщения раздела  


 

 Частный детектив № 62 / Private Detective 62(1933
surzhoks
  №1 Отправлено: 10.08.2017 - 19:51


Старожил

Группа: Аксакалы
Регистрация: 17.03.2008
Сообщений: 961
Обитает:
Последний раз был:
вчера в 22:03




Частный детектив № 62 / Private Detective 62


Страна: США
Студия: The Vitaphone Corporation, Warner Bros. Pictures
Жанр: фильм-нуар, драма, мелодрама, комедия, криминал
Год выпуска: 1933
Продолжительность: 01:06:06
Режиссер: Майкл Кёртиц / Michael Curtiz
Композиторы: Бернхард Каун / Bernhard Kaun

В ролях:
Уильям Пауэлл / William Powell ... Donald Free
Маргарет Линдсей / Margaret Lindsay ... Janet Reynolds
Рут Доннелли / Ruth Donnelly ... Amy Moran
Гордон Весткотт / Gordon Westcott ... Tony Bandor
Артур Хол / Arthur Hohl ... Dan J. Hogan
Натали Мурхед / Natalie Moorhead ... Helen Burns
Джеймс Белл / James Bell ... Whitey
Хобарт Кавано / Hobart Cavanaugh ... Harcourt S. Burns
Ирвинг Бэйкон / Irving Bacon ... Cab Driver
Джоан Барклай / Joan Barclay ... Gambler, в титрах не указана
Хейни Конклин / Heinie Conklin ... Bartender, в титрах не указан
Эдди Данн / Eddie Dunn ... Doorman, в титрах не указан

Описание: Сотрудник Государственного департамента США Дональд Фри был пойман во Франции при попытке украсть французские государственные бумаги. Фри увольняют и депортируют в США. Вернувшись домой, Фри с трудом находит другую работу. Он убеждает Дэна Хогана - владельца захудалого детективного агентства, принять его на работу. Фри не подозревает, что агенство Хогана финансируется местным бандитом Тони Бэндором. Однажды Бэндор обращается к Хогану с просьбой организовать дискредитацию дамы из высшего общества Джанет Рейнолдс, которая непростительно много выигрывает в его игорном заведении. Дело в том, что если получится впутать Джанет в скандал, то она лишится права требовать от Бэндора выплаты выигрыша. Это щепетильное задание Хоган поручает выполнить Дональду Фри...

[b]Доп. информация
:
Огромное спасибо всем причастным к релизу:
рип - Магда,
перевод фильма (кроме фраз на французском) - Северный,
перевод французских фраз - Lisok,
озвучивание фильма (по русским субтитрам) - fiendover (Виктор Рутилов),
работа со звуком и реавторинг исходного DVD- AlekceyR76,
финансовая поддержка озвучивания фильма:
Магда, Lafajet, jasenka, елена 22, yanaelisa, STICK24, sapog1960, sindzi, voostorg, surzhoks, борюська, leoder, spartakeynoir

Архивы созданы RAR-архиватором с добавлением 1% на восстановление и снабжены sfv-проверочником.
Просьба к первому скачавшему отписаться о сохранности архивов на источнике раздачи.

Раздача рассчитана на 2 месяца. На просмотр линка и скачивание 5 дней!
В случае если вы встали в очередь, а затем отказываетесь от скачивания без объяснения причин, возможен отказ в последующих моих раздачах.



Полное имя :Private Detective 62.avi
Формат : AVI
Формат/Информация : Audio Video Interleave
Размер файла : 1,10 Гбайт
Продолжительность : 1 ч. 6 м.
Общий поток : 2375 Кбит/сек
Программа кодирования : VirtualDubMod 1.5.10.3 | www.virtualdub-fr.org || (build 2550/release)
Библиотека кодирования : VirtualDubMod build 2550/release

Видео
Идентификатор : 0
Формат : MPEG-4 Visual
Профиль формата : Advanced Simple@L5
Параметр BVOP формата : 2
Параметр QPel формата : Нет
Параметр GMC формата : Без точки перехода
Параметр матрицы формата : Default (H.263)
Идентификатор кодека : DX50
Идентификатор кодека/Подсказка : DivX 5
Продолжительность : 1 ч. 6 м.
Битрейт : 1977 Кбит/сек
Ширина : 640 пикселей
Высота : 480 пикселей
Соотношение сторон : 4:3
Частота кадров : 23,976 кадра/сек
Цветовое пространство : YUV
Субдискретизация насыщенности : 4:2:0
Битовая глубина : 8 бит
Тип развёртки : Прогрессивная
Метод сжатия : С потерями
Бит/(Пиксели*Кадры) : 0.268
Размер потока : 935 Мбайт (83%)
Библиотека кодирования : XviD 73

Аудио #1
Идентификатор : 1
Формат : AC-3
Формат/Информация : Audio Coding 3
Расширение режима : CM (complete main)
Параметр Endianness формата : Big
Идентификатор кодека : 2000
Продолжительность : 1 ч. 6 м.
Вид битрейта : Постоянный
Битрейт : 192 Кбит/сек
Каналы : 2 канала
Расположение каналов : Front: L R
Частота : 48,0 КГц
Битовая глубина : 16 бит
Метод сжатия : С потерями
Размер потока : 90,8 Мбайт (8%)
Выравнивание : Разделение по промежуткам
Продолжительность промежутка : 42 мс. (1,00 видеокадр)
Время предзагрузки промежутка : 500 мс.

Аудио #2
Идентификатор : 2
Формат : AC-3
Формат/Информация : Audio Coding 3
Расширение режима : CM (complete main)
Параметр Endianness формата : Big
Идентификатор кодека : 2000
Продолжительность : 1 ч. 6 м.
Вид битрейта : Постоянный
Битрейт : 192 Кбит/сек
Каналы : 2 канала
Расположение каналов : Front: L R
Частота : 48,0 КГц
Битовая глубина : 16 бит
Метод сжатия : С потерями
Размер потока : 90,8 Мбайт (8%)
Выравнивание : Разделение по промежуткам
Продолжительность промежутка : 42 мс. (1,00 видеокадр)
Время предзагрузки промежутка : 500 мс.




--------------------
Искусство откладывать деньги сводится к умению сказать “нет” потребительскому обществу.

Скрыть подпись


vjub58
№2 Отправлено: 10.08.2017 - 20:16


Практикующий эсквайр

Группа: Аксакалы
Регистрация: 6.12.2005
Сообщений: 4553
Обитает:
Последний раз был:
cегодня в 20:17




Спасибо, все ОК. pozdrav_buket.gif
Top
1 человек просматривает эту тему (1 гость)
« Предыдущая тема | Зарубежные фильмы | Следующая тема »


 



[Script Execution time: 0,0311]   [23 queries used]   [GZIP enabled]