Заходят многие - остаются лучшие!
Здравствуйте Гость ( Вход | Регистрация ) Выслать повторно письмо для активации
Вход
Ваше имя Пароль Забыли пароль?
Запомнить Вас?
Войти скрытым?



Новые сообщения раздела  

 

 Вас вызывает Таймыр (1970), Старое советское кино
Alevtina
  №1 Отправлено: 20.03.2016 - 17:53


Время камни собирать...

Группа: Аксакалы
Регистрация: 12.02.2009
Сообщений: 5776
Обитает:
Последний раз был:
вчера в 18:58




Вас вызывает Таймыр



Раздача на форуме
В рамках проекта

«Вас вызывает Таймыр» - советский комедийный телевизионный фильм режиссёра Алексея Коренева, снятый по одноимённой пьесе Константина Исаева и Александра Галича.

Предыдущая раздача 31.03.2007 г.
Предыдущая раздача 20.06.2011 г.
Предыдущая раздача 27.11.2015 г.

Жанр: Комедия
Выпущено: СССР, Мосфильм
Год выпуска: 1970
Премьера: 03 января 1971 года (ТВ)

Режиссёр: Алексей Коренев

В ролях:
Екатерина Васильева … дежурная
Юрий Кузьменков … Дюжиков (в титрах указан как Кузменков)
Евгений Стеблов … Андрей Николаевич Гришко
Евгений Весник … Иван Иванович Кирпичников
Зиновий Гердт … человек в клетчатом пальто
Валентина Талызина … Елена Николаевна Попова, мама Любы
Инна Макарова … Елизавета Михайловна Кирпичникова
Елена Коренева … Дуня Бабурина (вокал — Нина Бродская; дебютная роль Елены в кино)
Павел Павленко … дед Бабурин
Светлана Старикова … Люба Попова
Лариса Барабанова … милиционер
Николай Парфёнов … разгневанный мужчина
Николай Романов … профессор
Елизавета Никищихина … певица
Пётр Колбасин … аккомпаниатор
Татьяна Гаврилова … танцовщица из филармонии
Николай Романов … профессор
Нина Агапова … певица
Александра Дорохина … женщина с детьми

Сценаристы: Александр Галич, Константин Исаев
Оператор: Сергей Зайцев
Художник: Леонид Платов
Композитор: Эдуард Колмановский
Текст песни: Александр Галич


Нина Бродская - исполняет песню "Вальс"


Описание: 1947 год. В номере гостиницы "Заря" живут директор филармонии Кирпичников, геолог Дюжиков, ждущий вызова с Таймыра, страдающий от любви юноша Андрей Гришко (тоже геолог), дедушка-пчеловод Бабурин. Все они приехали в Москву всего на несколько дней. У каждого много неотложных дел. Немудрено, что даже при благожелательном друг к другу отношении, между жильцами происходят всевозможные несуразности.







General
Complete name : C:\Cinema\Вас вызывает Таймыр (1970) TVRip.avi
Format : AVI
Format/Info : Audio Video Interleave
File size : 1.37 GiB
Duration : 1h 25mn
Overall bit rate : 2 305 Kbps
Writing application : VirtualDubMod 1.5.10.2 (build 2542/release)
Writing library : VirtualDubMod build 2542/release

Video
ID : 0
Format : MPEG-4 Visual
Format profile : Advanced Simple@L5
Format settings, BVOP : 2
Format settings, QPel : No
Format settings, GMC : No warppoints
Format settings, Matrix : Default (H.263)
Muxing mode : Packed bitstream
Codec ID : XVID
Codec ID/Hint : XviD
Duration : 1h 25mn
Bit rate : 2 103 Kbps
Width : 720 pixels
Height : 544 pixels
Display aspect ratio : 4:3
Frame rate : 25.000 fps
Color space : YUV
Chroma subsampling : 4:2:0
Bit depth : 8 bits
Scan type : Progressive
Compression mode : Lossy
Bits/(Pixel*Frame) : 0.215
Stream size : 1.25 GiB (91%)
Writing library : XviD 65

Audio
ID : 1
Format : MPEG Audio
Format version : Version 1
Format profile : Layer 3
Mode : Joint stereo
Mode extension : MS Stereo
Codec ID : 55
Codec ID/Hint : MP3
Duration : 1h 25mn
Bit rate mode : Constant
Bit rate : 192 Kbps
Channel(s) : 2 channels
Sampling rate : 48.0 KHz
Compression mode : Lossy
Stream size : 117 MiB (8%)
Alignment : Aligned on interleaves
Interleave, duration : 40 ms (1.00 video frame)
Interleave, preload duration : 504 ms
Writing library : LAME3.98r
Encoding settings : -m j -V 4 -q 3 -lowpass 18.6 -b 192


Другое участие: Cheef mate – предоставление исходной записи


Параметры рипа:
Размер: 1,37 ГБ
Источник рипа: DVB-T
Продолжительность: 01:25:08
Субтитры: Отсутствуют
Параметры видео: 720x544 (1.32:1), 25 fps, XviD MPEG-4 ~2102 kbps avg, 0.21 bit/pixel
Параметры звука: 48 kHz, MPEG Layer 3, 2 ch, ~192.00 kbps avg
Данные на архив:
Сдал в архив: Alevtina
Для получения линка и пароля достаточно ответить в тему или нажать кнопку "Спасибо".


1 человек просматривает эту тему (1 гость)
« Предыдущая тема | Архив Отечественного кино 1960-1990 | Следующая тема »


 



[Script Execution time: 0,0789]   [21 queries used]   [GZIP enabled]