Заходят многие - остаются лучшие!
Здравствуйте Гость ( Вход | Регистрация ) Выслать повторно письмо для активации
Вход
Ваше имя Пароль Забыли пароль?
Запомнить Вас?
Войти скрытым?



Новые сообщения раздела  

 

 От семи до двенадцати (1965), Комедийный киноальманах, состоящий из 3 фильмов
медикус
  №1 Отправлено: 15.10.2014 - 08:27


Живёт здесь

Группа: Модераторы
Регистрация: 22.07.2008
Сообщений: 10505
Обитает:
Последний раз был:
вчера в 23:19




От семи до двенадцати (1965)



Раздача на форуме
Название: От семи до двенадцати
Жанр: детский, комедия
Выпущено: СССР, Мосфильм
Год выпуска: 1965
Премьера (СССР): 5 июля 1965
Сценаристы: Юрий Сотник, Агния Барто, Розалия Амусина
Операторы: Евгений Васильев, Виктор Тарусов
Композиторы: Г.Фиртич, Михаил Зив
Художники: Петр Веременко, И.Лягин, В.Харитонов, М.Квятковская
Монтажеры: Л.Чалова, А.Карпова

Режиссеры: Хасан Бакаев, Екатерина Сташевская (Народицкая), Юрий Фридман

В ролях: Стас Лыкин (Лыхин), Женя Орлов, Татьяна Решетникова, Игорь Агапкин, Герман Качин, Саша Гуров, Миша Молокоедов, Слава Тырлов, Олег Даль, Даниил Нетребин, Зоя Фёдорова, Лена Пронина, Людмила Шагалова, Валентин Зубков, Нина Агапова, Лена Корхина, Оля Никольская, Сережа Осипов, Гриша Плоткин, Саша Сингин, Валя Соколова, Юра Титов, Сережа Шалаевский, Боря Кузнецов (II) и другие


ЧП в пятом "Б"
Стас Лыкин (Лыхин) … Петя
Татьяна Решетникова … Люся, пионервожатая
Слава Тырлов … Владик, председатель Совета отряда
Валя Соколова … Таня, пионерка 1-го звена
Сережа Осипов … пионер 1-го звена
Саша Сингин … пионер 1-го звена
Лена Корхина … пионерка 2-го звена
Оля Никольская … пионерка 2-го звена
Гриша Плоткин … Костя, пионер 2-го звена
Боря Кузнецов (II) … Никита, пионер 2-го звена
Ирина Мурзаева … Лидия Васильевна, учительница (нет в титрах)
Надежда Самсонова … женщина во дворе
Александра Денисова … бабушка Владика

Черный котёнок
Герман Качин … Бычков, вратарь "Молнии"
Саша Гуров … Боря
Миша Молокоедов … Алик
Олег Даль … Шурик
Зоя Фёдорова … бабушка Алика
Нина Агапова … мама Бориса
Даниил Нетребин … папа Бориса
Валентин Брылеев … папа Толика
Светлана Харитонова … продавец билетов на футбол (нет в титрах)
Алексей Катышев … эпизод (нет в титрах)

Зонтик
Женя Орлов … Толик
Игорь Агапкин … Димка
Юра Титов … Славка
Сережа Шалаевский … Андрюшка
Лена Пронина … Люся
Людмила Шагалова … Наташа, мама Люси
Валентин Зубков … папа Люси
Рина Зелёная … уборщица
Оксана Левинсон …
озвучивание
Мария Виноградова … мальчишка (Зонтик)
Клара Румянова … девочка с собакой (Зонтик)

Описание: Киноальманах «От семи до двенадцати» состоит из 3 фильмов по рассказам детских писателей Юрия Сотника, Агнии Барто, Розалии Амусиной.
ЧП в 4-м «Б»: По рассказу Юрия Сотника. Петя смастерил любительскую кинокамеру и решает тайком заснять драку ребят из третьего звена, которые неизвестно почему враждуют друг с другом. Но ребята обнаруживают Петю, заинтересовываются кинокамерой и, примирившись, инсценируют для него драку. А потом решают создать свою любительскую киностудию. Все довольны и веселы, только Пете грустно — он так и не снял «хроникального сюжета.
Черный котенок: По произведениям Агнии Барто. Боря и Алик, болельщики футбольной команды «Птицеферма», однажды находят на улице черного котенка и, наперекор родителям, берут над ним опеку. На очередной матч между «Птицефермой» и «Молнией» ребята берут его с собой — и котенок приносит удачу их любимой команде.
Зонтик: По рассказу Розалии Амусиной. Двое ребят — Толик и Дима, возвращаясь с репетиции пионерского парада, попали под дождь. Они спрятались в подъезде, но выйти не могут — на них новая, шелковая форма для парада. Случайные прохожие — мужчина и женщина — отдают ребятам зонтик с условием, чтобы те вернули его к восьми часам утра. Зонтик попадает к Славке, а потом к Люсе, которые оказываются в таком же положении, как Толик и Димка. И тут выясняется, что зонтик принадлежит Люсиным родителям и, кажется, никуда его нести не следует. Но Люся знает. что ребята будут волноваться, если не сумеют вовремя вернуть зонтик по назначению. И зонтик совершает обратное путешествие.

Награды и номинации:
МКФ детских фильмов в Ла-Плате (Аргентина), 1967 год
- "Серебряный жетон"


ЧП в пятом "Б"


Черный котёнок


Зонтик


Размер файла: 1123.85 Mb ( 1 178 439 514 bytes )

Продолжительность: 01:11:18.959 (106974 frames)

ОГРОМНАЯ БЛАГОДАРНОСТЬ pmv за рип с улучшенным качеством видео и аудио.
Исходником послужил релиз качеством DVB-S, формата MPEG-PS (запись потока *.ts со спутника EUTELSAT с ТК «ДОМ КИНО») от Cheef mate, за что ему БОЛЬШОЕ СПАСИБО!.


General
Complete name : D:\torrents\От семи до двенадцати (1965).avi
Format : AVI
Format/Info : Audio Video Interleave
File size : 1.10 GiB
Duration : 1h 11mn
Overall bit rate : 2 203 Kbps
Writing library : VirtualDub build 35512/release

Video
ID : 0
Format : MPEG-4 Visual
Format profile : Advanced Simple@L5
Format settings, BVOP : Yes
Format settings, QPel : No
Format settings, GMC : No warppoints
Format settings, Matrix : Default (H.263)
Muxing mode : Packed bitstream
Codec ID : XVID
Codec ID/Hint : XviD
Duration : 1h 11mn
Bit rate : 2 098 Kbps
Width : 720 pixels
Height : 544 pixels
Display aspect ratio : 4:3
Frame rate : 25.000 fps
Resolution : 8 bits
Colorimetry : 4:2:0
Scan type : Progressive
Bits/(Pixel*Frame) : 0.214
Stream size : 1.04 GiB (95%)
Writing library : XviD 73

Audio
ID : 1
Format : MPEG Audio
Format version : Version 1
Format profile : Layer 3
Codec ID : 55
Codec ID/Hint : MP3
Duration : 1h 11mn
Bit rate mode : Constant
Bit rate : 96.0 Kbps
Channel(s) : 1 channel
Sampling rate : 48.0 KHz
Stream size : 49.0 MiB (4%)
Alignment : Split accross interleaves
Interleave, duration : 40 ms (1.00 video frame)
Interleave, preload duration : 500 ms

ВСЕМ ПРИЯТНОГО ПРОСМОТРА !!!


Параметры рипа:
Размер: 1,1 ГБ
Источник рипа: DVB-T
Продолжительность: 01:11:19
Субтитры: Отсутствуют
Параметры видео: 720x544 (1.32:1), 25 fps, XviD build 73 ~2097 kbps avg, 0.21 bit/pixel
Параметры звука: 48 kHz, MPEG Layer 3, 1 ch, ~96.00 kbps avg - Русский
Данные на архив:
Сдал в архив: медикус
Для получения линка и пароля достаточно ответить в тему или нажать кнопку "Спасибо".


Это сообщение отредактировал медикус - 15.10.2014 - 08:49
1 человек просматривает эту тему (1 гость)
« Предыдущая тема | Детские фильмы. Архив | Следующая тема »


 



[Script Execution time: 0,0593]   [21 queries used]   [GZIP enabled]