Заходят многие - остаются лучшие!
Здравствуйте Гость ( Вход | Регистрация ) Выслать повторно письмо для активации
Вход
Ваше имя Пароль Забыли пароль?
Запомнить Вас?
Войти скрытым?



 Правила раздела Новые сообщения раздела  


 

 Песнь любви / Song of Love (1947), Кэтрин Хепберн, Пол Хенрейд, Роберт Уокер / музыкальная драма
surzhoks
  №1 Отправлено: 6.01.2018 - 22:02


Живёт здесь

Группа: Аксакалы
Регистрация: 17.03.2008
Сообщений: 1065
Обитает:
Последний раз был:
cегодня в 20:26




Песнь любви / Song of Love


Страна: США
Студия: Metro-Goldwyn-Mayer (MGM)
Жанр: музыкальная драма
Год выпуска: 1947
Продолжительность: 01:58:16
Режиссер: Кларенс Браун / Clarence Brown

В ролях: Кэтрин Хепберн / Katharine Hepburn ... Clara Wieck Schumann
Пол Хенрейд / Paul Henreid ... Robert Schumann
Роберт Уокер / Robert Walker ... Johannes Brahms
Генри Дэниелл / Henry Daniell ... Franz Liszt
Лео Г. Кэррол / Leo G. Carroll ... Professor Wieck
Эльза Янссен / Elsa Janssen (в титрах: Else Janssen) ... Bertha
Жижи Перро / Gigi Perreau ... Julie
Энн Картер / Ann Carter ... Marie
Джанин Перро / Janine Perreau ... Eugenie
Джимми Хант / Jimmy Hunt ... Ludwig
Энтони Сайдс / Anthony Sydes ... Ferdinand
Эйлен Янссен / Eilene Janssen ... Elise
Роман Бонен / Roman Bohnen ... Dr. Hoffman
Людвиг Штёссель / Ludwig Stössel (в титрах: Ludwig Stossel) ... Haslinger
Тала Бирелл / Tala Birell ... Princess Valerie Hohenfels

Описание: Знаменитая пианистка Клара Вик тайно влюблена в начинающего композитора Роберта Шумана. Ведомая чувством, она исполняет его произведение в королевском дворце, что не вызывает поддержки её властного отца. Он запрещает Кларе выйти замуж за любимого, но с помощью Франца Листа девушке удаётся заставить семью поверить в талант Роберта. Скоро влюблённые женятся. По прошествии нескольких лет Шуман содержит семью, давая уроки музыки. Клара и друг семьи Иоганнес Брамс решают помочь Шуману сочинить великое произведение...

Доп. информация:
Огромное спасибо всем причастным к релизу:
рип - Магда,
перевод и озвучивание фильма - Алексей Яковлев,
работа со звуком и реавторинг исходного DVD- AlekceyR76,
финансовая поддержка озвучивания фильма: Магда, Lafajet, jasenka, елена 22, yanaelisa, cementit, Wrobel, Ugo927, voostorg, mumzik69, HippopotamusIV, surzhoks, sindzi, leoder, борюська

Архивы созданы RAR-архиватором с добавлением 3% на восстановление и снабжены sfv-проверочником.
Просьба к первому скачавшему отписаться о сохранности архивов на источнике раздачи.

Раздача рассчитана на 2 месяца. На просмотр линка и скачивание 5 дней!
В случае если вы встали в очередь, а затем отказываетесь от скачивания без объяснения причин, возможен отказ в последующих моих раздачах.



Полное имя :Song of Love.1947.DVDRip.avi
Формат : AVI
Формат/Информация : Audio Video Interleave
Размер файла : 1,62 Гбайт
Продолжительность : 1 ч. 58 м.
Общий поток : 1960 Кбит/сек
Программа кодирования : VirtualDubMod 1.5.4.1 (build 2178/release)
Библиотека кодирования : VirtualDubMod build 2178/release

Видео
Идентификатор : 0
Формат : MPEG-4 Visual
Профиль формата : Advanced Simple@L5
Параметр BVOP формата : 2
Параметр QPel формата : Нет
Параметр GMC формата : Без точки перехода
Параметр матрицы формата : Default (H.263)
Идентификатор кодека : DX50
Идентификатор кодека/Подсказка : DivX 5
Продолжительность : 1 ч. 58 м.
Битрейт : 1562 Кбит/сек
Ширина : 640 пикселей
Высота : 480 пикселей
Соотношение сторон : 4:3
Частота кадров : 23,976 кадра/сек
Цветовое пространство : YUV
Субдискретизация насыщенности : 4:2:0
Битовая глубина : 8 бит
Тип развёртки : Прогрессивная
Метод сжатия : С потерями
Бит/(Пиксели*Кадры) : 0.212
Размер потока : 1,29 Гбайт (80%)
Библиотека кодирования : XviD 73

Аудио #1
Идентификатор : 1
Формат : AC-3
Формат/Информация : Audio Coding 3
Расширение режима : CM (complete main)
Параметр Endianness формата : Big
Идентификатор кодека : 2000
Продолжительность : 1 ч. 58 м.
Вид битрейта : Постоянный
Битрейт : 192 Кбит/сек
Каналы : 2 канала
Расположение каналов : Front: L R
Частота : 48,0 КГц
Битовая глубина : 16 бит
Метод сжатия : С потерями
Размер потока : 162 Мбайт (10%)
Выравнивание : Разделение по промежуткам
Продолжительность промежутка : 42 мс. (1,00 видеокадр)
Время предзагрузки промежутка : 500 мс.

Аудио #2
Идентификатор : 2
Формат : AC-3
Формат/Информация : Audio Coding 3
Расширение режима : CM (complete main)
Параметр Endianness формата : Big
Идентификатор кодека : 2000
Продолжительность : 1 ч. 58 м.
Вид битрейта : Постоянный
Битрейт : 192 Кбит/сек
Каналы : 2 канала
Расположение каналов : Front: L R
Частота : 48,0 КГц
Битовая глубина : 16 бит
Метод сжатия : С потерями
Размер потока : 162 Мбайт (10%)
Выравнивание : Разделение по промежуткам
Продолжительность промежутка : 42 мс. (1,00 видеокадр)
Время предзагрузки промежутка : 500 мс.




vjub58
№2 Отправлено: 7.01.2018 - 00:33


Практикующий эсквайр

Группа: Аксакалы
Регистрация: 6.12.2005
Сообщений: 4769
Обитает:
Последний раз был:
cегодня в 20:59




Спасибо, все ОК. pozdrav_buket.gif
Top
1 человек просматривает эту тему (1 гость)
« Предыдущая тема | Зарубежные фильмы | Следующая тема »


 



[Script Execution time: 0,0554]   [23 queries used]   [GZIP enabled]