Заходят многие - остаются лучшие!
Здравствуйте Гость ( Вход | Регистрация ) Выслать повторно письмо для активации
Вход
Ваше имя Пароль Забыли пароль?
Запомнить Вас?
Войти скрытым?



Новые сообщения раздела  

 

 Два часа с бардами (1987), Документальный телефильм об авторской песне
SanSan48
  №1 Отправлено: 10.06.2018 - 16:36


"Спартак" - ЧЕМПИОН!!!

Группа: Пользователи
Регистрация: 28.12.2009
Сообщений: 1901
Обитает:
Последний раз был:
17.06.2018 - 13:29




Два часа с бардами (1987)



Жанр: Документальный, музыкальный (авторская песня)
Выпущено: СССР, Мосфильм
Год выпуска: 1987
Сценарист: Александр Стефанович
Операторы: Владимир Шевцик, Андрей Ренков
Композитор: Андрей Макаревич
Художник: Александр Самулекин
Монтажёр: Татьяна Белоусова

Режиссёр: Александр Стефанович

Исполнители песен:
Александр Галич, Булат Окуджава, Владимир Высоцкий, Юрий Визбор, Юлий Ким, Александр Городницкий, Александр Дольский, Олег Митяев, Александр Розенбаум , Андрей Макаревич, Леонид Сергеев, Владимир Капгер и другие

Описание:
На протяжении многих десятилетий неизменным остается интерес миллионов людей к авторской песне. В этом фильме звучат голоса советских бардов разных поколений. Два часа зрители проведут с авторской песней. Два часа с бардами - великими и смешными, ироничными и наивными, печальными и веселыми; теми, кого уже нет, и теми, кто поет для нас и сейчас.
Комментируют фильм историк Натан Эйдельман и бард Александр Розенбаум.

Дополнительная информация: Релиз:

Автор рипа: pmv

Большое спасибо за:
- исходный материал для оцифровки и разрешение на раздачу - некто Андрей

* "Художественно-документальный телефильм об авторской песне известного режиссёра Александра Стефановича был снят и выпущен в прокат в 1987 году продолжительностью 118 мин. (1 час. 58 мин.). В 1988 фильм был выпущен в кинопрокат под названием «Барды» в сокращённом виде продолжительностью 81 мин. (01 час. 21 мин.) - https://www.kinopoisk.ru/film/bardy-1988-46031/.
Картина рассказывает о зарождении и развитии этого жанра и охватывает период отечественной истории 1952—1987 гг. Важнейшие события в жизни нашей страны демонстрируются параллельно с исполнением авторских песен, созданных в те годы. В фильме использованы многочисленные архивные материалы, представляющие собой документальные кадры исторической хроники и отрывки выступлений авторов и исполнителей, стоявших у истоков авторской песни: Ю.Визбора, Б.Окуджавы, А.Галича, В.Высоцкого, а также А.Дольского, Ю.Кима, А.Макаревича, Л.Сергеева и других. Выступления бардов перемежаются комментариями историка Натана Эйдельмана и автора-исполнителя Александра Розенбаума, песни которого также присутствуют в фильме. Свои комментарии дают также писатель Фазиль Искандер и автор фильма Александр Стефанович.
В фильме «Два часа с бардами» демонстрируются образы двух знаковых пространств - истории страны и истории авторской песни. Первые кадры — зрители собирающиеся на Грушинский фестиваль, подготовка сцены в форме огромной гитары, как бы плывущей по воде, настройка динамиков и микрофонов - идут на фоне песни Олега Митяева «Как здорово, что все мы здесь сегодня собрались». В финальном эпизоде, эпилоге, знаковым локусом становится Арбат эпохи перестройки, при этом пространство культуры расширяется как в прошлое, так и в будущее, и авторская песня вписывается в широкий культурно-исторический контекст…" (информация взята из Википедии)


IMDb = - (-) - https://www.imdb.com/title/tt0303716/ (Барды / Bardy, 1988)
Кинопоиск = 6.635 (54) - https://www.kinopoisk.ru/film/dva-chasa-s-b...mi-1987-542226/

Параметры файла:
Название: Два часа с бардами (1987).avi
Качество видео: DVDRip
Формат видео: AVI
Размер: 1396.86 Mb ( 1 464 714 788 bytes )
Продолжительность: 01:52:23.680 (168592 frames)
Видео: 720x544 (1.32:1), 25 fps, XviD build 73 ~1599 kbps avg, 0.16 bit/pixel
Аудио: 48 kHz, MPEG Layer 3, 2 ch, ~128.00 kbps avg



General
Complete name : D:\torrents\Два часа с бардами (1987).avi
Format : AVI
Format/Info : Audio Video Interleave
File size : 1.36 GiB
Duration : 1 h 52 min
Overall bit rate : 1 738 kb/s
Writing library : VirtualDub build 35491/release

Video
ID : 0
Format : MPEG-4 Visual
Format profile : Advanced Simple@L5
Format settings, BVOP : 2
Format settings, QPel : No
Format settings, GMC : No warppoints
Format settings, Matrix : Default (H.263)
Codec ID : XVID
Codec ID/Hint : XviD
Duration : 1 h 52 min
Bit rate : 1 600 kb/s
Width : 720 pixels
Height : 544 pixels
Display aspect ratio : 4:3
Frame rate : 25.000 FPS
Color space : YUV
Chroma subsampling : 4:2:0
Bit depth : 8 bits
Scan type : Progressive
Compression mode : Lossy
Bits/(Pixel*Frame) : 0.163
Stream size : 1.26 GiB (92%)
Writing library : XviD 73

Audio
ID : 1
Format : MPEG Audio
Format version : Version 1
Format profile : Layer 3
Mode : Joint stereo
Mode extension : MS Stereo
Codec ID : 55
Codec ID/Hint : MP3
Duration : 1 h 52 min
Bit rate mode : Constant
Bit rate : 128 kb/s
Channel(s) : 2 channels
Sampling rate : 48.0 kHz
Compression mode : Lossy
Delay relative to video : 150 ms
Stream size : 103 MiB (7%)
Alignment : Split accross interleaves
Interleave, duration : 40 ms (1.00 video frame)
Interleave, preload duration : 500 ms







МОИ РАЗДАЧИ НА ФЕНИКСе: ЗДЕСЬ




Это сообщение отредактировал SanSan48 - 10.06.2018 - 16:39


--------------------
"Спартак" - ЧЕМПИОН!!!

Скрыть подпись
OldLady
№2 Отправлено: 10.06.2018 - 17:13


секрет

Группа: Аксакалы
Регистрация: 26.03.2006
Сообщений: 3137
Последний раз был:
cегодня в 01:19




Все в порядке, спасибо!
Top
SanSan48
№3 Отправлено: 10.06.2018 - 17:23


"Спартак" - ЧЕМПИОН!!!

Группа: Пользователи
Регистрация: 28.12.2009
Сообщений: 1901
Обитает:
Последний раз был:
17.06.2018 - 13:29




Цитата
( OldLady @ 10.06.2018 - 17:13)
Все в порядке, спасибо!

OldLady, Благодарю за информацию!

Приятного всем просмотра!


--------------------
"Спартак" - ЧЕМПИОН!!!

Скрыть подпись
Top
1 человек просматривает эту тему (1 гость)
« Предыдущая тема | Мир и люди искусства | Следующая тема »


 



[Script Execution time: 0,0255]   [23 queries used]   [GZIP enabled]