Заходят многие - остаются лучшие!
Здравствуйте Гость ( Вход | Регистрация ) Выслать повторно письмо для активации
Вход
Ваше имя Пароль Забыли пароль?
Запомнить Вас?
Войти скрытым?



Новые сообщения раздела  

 

 Чехарда (1987) TVRip, Старое советское кино, экранизация
bornik
  №1 Отправлено: 7.01.2017 - 12:35


Воспоминания - это богатства старости.

Группа: Модераторы
Регистрация: 18.08.2008
Сообщений: 863
Обитает:
Последний раз был:
cегодня в 02:17




Чехарда (1987)



Предыдущая раздача 05.02.2009 г.
Предыдущая раздача 14.02.2013 г.

«Чехарда» - советский художественный фильм по мотивам повести Анатолия Алексина "Позавчера и послезавтра".

Год выпуска: 1987
Жанр: Детский, драма, экранизация
Выпущено: СССР, Киностудия им. А. Довженко по заказу Гостелерадио СССР
Продолжительность: 01:08:56

Режиссёры: Владимир Крайнев, Алим Федоринский

В ролях:
Евгений Лебедев … Виктор Макарович Караваев
Виталик Боголюбов … Миша Кутусов
Алиса Фрейндлих … Маргарита Васильевна Кудрявцева, аккомпаниатор и второй дирижёр
Лариса Удовиченко … мама Миши Кутусова
Сергей Проханов … папа Миши Кутусова
Александр Потапов … Дима, отец Володи, в детстве пел в хоре у Виктора Макаровича
Георгий Богадист … директор Дома Культуры "Дирдом"
Николай Гудзь … Евгений Семёнович Наливин, заслуженный артист республики, оперный певец
Юрий Муравицкий … Гурьянов (Лукьянов) заместитель начальника стройки
Олег Ладыгин … Володя, "Мандолина", мальчик обучающийся игре на домре
Вика Бочарова … эпизод
Димитрий Копп … "сообщник" Миши Кутусова на концерте
Елена Морозова … эпизод
И. Зайцева … эпизод
Н. Добряцова … эпизод
Н. Морозенко … эпизод
Екатерина Петренко … соседка во дворе
М. Петроканский … эпизод
Галина Пименова … эпизод
Т. Радзимовская … эпизод
Борис Таратута … эпизод
Алена Нефедова … эпизод (нет в титрах)

ВОКАЛ

Елена Камбурова … Исполнение песни мима

Сценарист: Вольф Долгий
Оператор: Михаил Кириллов
Композитор: Нектариос Чаргейшвили
Художник: Сергей Серебреников

Описание: Старому учителю пения Виктору Макаровичу очень дорога работа, которой он отдал лучшие годы своей жизни. Виктор Макарович одинок, у него нет семьи, ее заменили ученики-дети. Но он болен, руководить хором больше не может. В эти тяжелые для Виктора Макаровича дни особенно ярко проявляется привязанность к нему Миши Кутусова. Дружба старика и мальчика, попытка Миши помочь учителю являются сюжетной канвой фильма.








General
Complete name : C:\Cinema\Чехарда (1987) TVRip.avi
Format : AVI
Format/Info : Audio Video Interleave
File size : 1.16 GiB
Duration : 1h 8mn
Overall bit rate : 2 400 Kbps
Writing application : VirtualDubMod 1.5.10.2 (build 2540/release)
Writing library : VirtualDubMod build 2540/release

Video
ID : 0
Format : MPEG-4 Visual
Format profile : Advanced Simple@L5
Format settings, BVOP : 2
Format settings, QPel : No
Format settings, GMC : No warppoints
Format settings, Matrix : Default (H.263)
Muxing mode : Packed bitstream
Codec ID : XVID
Codec ID/Hint : XviD
Duration : 1h 8mn
Bit rate : 2 198 Kbps
Width : 720 pixels
Height : 544 pixels
Display aspect ratio : 4:3
Frame rate : 25.000 fps
Color space : YUV
Chroma subsampling : 4:2:0
Bit depth : 8 bits
Scan type : Progressive
Compression mode : Lossy
Bits/(Pixel*Frame) : 0.224
Stream size : 1.06 GiB (92%)
Writing library : XviD 65

Audio
ID : 1
Format : MPEG Audio
Format version : Version 1
Format profile : Layer 3
Mode : Joint stereo
Mode extension : MS Stereo
Codec ID : 55
Codec ID/Hint : MP3
Duration : 1h 8mn
Bit rate mode : Constant
Bit rate : 192 Kbps
Channel(s) : 2 channels
Sampling rate : 48.0 KHz
Compression mode : Lossy
Stream size : 94.7 MiB (8%)
Alignment : Aligned on interleaves
Interleave, duration : 40 ms (1.00 video frame)
Interleave, preload duration : 504 ms
Writing library : LAME3.98r
Encoding settings : -m j -V 4 -q 3 -lowpass 18.6 -b 192


=================================

Исходником послужил релиз DVB от Cheef mate (запись потока *.ts со спутника EUTELSAT, микширование в *.mpg программой VideoReDo),
взятый с Рутрекера, за что ему БОЛЬШОЕ СПАСИБО!



Архивы созданы RAR-архиватором с добавлением 3% на восстановление и снабжены sfv-проверочником.
Просьба к первому скачавшему отписаться о сохранности архивов на источнике раздачи.

Раздача рассчитана на месяц.

ПРИЯТНОГО ВСЕМ ПРОСМОТРА !!!


Другое участие: Chiefmate – предоставление исходной записи
Фильм залит в архив.




--------------------
Безоблачная старость – это миф,
Поскольку наша память – ширь морская,
И к ночи начинается прилив,
Со дна обломки прошлого таская.
Игорь Губерман

Скрыть подпись


Ristel
№2 Отправлено: 7.01.2017 - 13:23


Мама.

Группа: Пользователи
Регистрация: 21.02.2007
Сообщений: 1855
Обитает:
Последний раз был:
19.04.2017 - 19:16




Все в порядке. Спасибо! smail.gif


--------------------
Радуйся жизни, пока ты ею недоволен - она проходит!

Скрыть подпись
Top
bornik
№3 Отправлено: 7.01.2017 - 13:49


Воспоминания - это богатства старости.

Группа: Модераторы
Регистрация: 18.08.2008
Сообщений: 863
Обитает:
Последний раз был:
cегодня в 02:17




Цитата
( Ristel @ 7.01.2017 - 13:23)
Все в порядке. Спасибо! smail.gif

И Вам, Ristel, спасибо за добрую весть. happy_fly.gif


--------------------
Безоблачная старость – это миф,
Поскольку наша память – ширь морская,
И к ночи начинается прилив,
Со дна обломки прошлого таская.
Игорь Губерман

Скрыть подпись
Top
bornik
№4 Отправлено: 4.03.2017 - 03:04


Воспоминания - это богатства старости.

Группа: Модераторы
Регистрация: 18.08.2008
Сообщений: 863
Обитает:
Последний раз был:
cегодня в 02:17




Всем спасибо.
Очередь закрыта. Если есть желающие - пишите в ПМ. wink2.gif


--------------------
Безоблачная старость – это миф,
Поскольку наша память – ширь морская,
И к ночи начинается прилив,
Со дна обломки прошлого таская.
Игорь Губерман

Скрыть подпись
Top
1 человек просматривает эту тему (1 гость)
« Предыдущая тема | Детский киносеанс | Следующая тема »


 



[Script Execution time: 0,2383]   [24 queries used]   [GZIP enabled]