Заходят многие - остаются лучшие!
Здравствуйте Гость ( Вход | Регистрация ) Выслать повторно письмо для активации
Вход
Ваше имя Пароль Забыли пароль?
Запомнить Вас?
Войти скрытым?



Новые сообщения раздела  

 

 Тайна Снежной королевы. Сказка про сказку [2 серии] (1986) TVRip, Старое советское кино, экранизация
bornik
  №1 Отправлено: 8.01.2017 - 03:47


Воспоминания - это богатства старости.

Группа: Модераторы
Регистрация: 18.08.2008
Сообщений: 966
Обитает:
Последний раз был:
cегодня в 02:16




Тайна Снежной королевы. Сказка про сказку [2 серии] (1986)



Предыдущая раздача 07.05.2007 г.
Предыдущая раздача 26.12.2009 г.
Предыдущая раздача 26.01.2010 г.

«Тайна Снежной королевы» - фильм режиссёра Николая Александровича, поставленный по мотивам сказки Ганса Христиана Андерсена «Снежная королева».

Год выпуска: 1986
Жанр: Детский, сказка, мюзикл, экранизация
Выпущено: СССР, Творческое объединение "Экран"
Продолжительность: 02:16:09 (01:08:15 + 01:07:54)
Премьера (СССР): 02 января 1987 года (ТВ)

Режиссёр: Николай Александрович

В ролях:
Олег Ефремов … Голос сказки
Ян Пузыревский … Кей
Нина Гомиашвили … Герда
Алиса Фрейндлих … Снежная Королева
Вия Артмане … Госпожа Осень
Людмила Макарова … Атаманша
Владислав Стржельчик … Барон, Которого Нет
Александр Леньков … Снеговик
Леонид Ярмольник … Принц Нарцисс
Сергей Проханов … Крапивный Побег
Владимир Качан … Крапивный Побег
Владимир Виноградов … Вьюнок
Всеволод Ларионов … Звездочёт
Михаил Богдасаров … Башмачник
Пётр Складчиков … Свинопас
Александр Пятков … Мельник
Наталья Трубникова … Старшая снежинка (нет в титрах)

Автор сценария и стихов: Вадим Коростылёв
Оператор: Георгий Криницкий
Композитор: Марк Минков
Художник: Владимир Птицын

Описание: Музыкальный фильм по мотивам сказки Ганса Христиана Андерсена "Снежная королева".
Фильм-сказка, повествующий о необыкновенном путешествии скромной маленькой девочки Герды. Она разыскивает своего друга Кая, которого похитила и унесла в свое царство Снежная королева - могущественная злая волшебница. По дороге к Снежной королеве Герда попадает в замок к хитрому, коварному и в то же время смешному королю, знакомится с лесными разбойниками. На пути у девочки будет много преград, но верное сердце Герды одолеет все преграды...













General
Complete name : C:\Cinema\TaSneKor1-2\Тайна Снежной королевы. Сказка про сказку 1 (1986) TVRip
Format : AVI
Format/Info : Audio Video Interleave
File size : 1.15 GiB
Duration : 1h 8mn
Overall bit rate : 2 405 Kbps
Writing application : VirtualDubMod 1.5.10.2 (build 2540/release)
Writing library : VirtualDubMod build 2540/release

Video
ID : 0
Format : MPEG-4 Visual
Format profile : Advanced Simple@L5
Format settings, BVOP : 2
Format settings, QPel : No
Format settings, GMC : No warppoints
Format settings, Matrix : Default (H.263)
Muxing mode : Packed bitstream
Codec ID : XVID
Codec ID/Hint : XviD
Duration : 1h 8mn
Bit rate : 2 203 Kbps
Width : 720 pixels
Height : 544 pixels
Display aspect ratio : 4:3
Frame rate : 25.000 fps
Color space : YUV
Chroma subsampling : 4:2:0
Bit depth : 8 bits
Scan type : Progressive
Compression mode : Lossy
Bits/(Pixel*Frame) : 0.225
Stream size : 1.05 GiB (92%)
Writing library : XviD 65

Audio
ID : 1
Format : MPEG Audio
Format version : Version 1
Format profile : Layer 3
Mode : Joint stereo
Mode extension : MS Stereo
Codec ID : 55
Codec ID/Hint : MP3
Duration : 1h 8mn
Bit rate mode : Constant
Bit rate : 192 Kbps
Channel(s) : 2 channels
Sampling rate : 48.0 KHz
Compression mode : Lossy
Stream size : 93.7 MiB (8%)
Alignment : Aligned on interleaves
Interleave, duration : 40 ms (1.00 video frame)
Interleave, preload duration : 504 ms
Writing library : LAME3.98r
Encoding settings : -m j -V 4 -q 3 -lowpass 18.6 -b 192

=================================











General
Complete name : C:\Cinema\TaSneKor1-2\Тайна Снежной королевы. Сказка про сказку 2 (1986) TVRip
Format : AVI
Format/Info : Audio Video Interleave
File size : 1.14 GiB
Duration : 1h 7mn
Overall bit rate : 2 405 Kbps
Writing application : VirtualDubMod 1.5.10.2 (build 2540/release)
Writing library : VirtualDubMod build 2540/release

Video
ID : 0
Format : MPEG-4 Visual
Format profile : Advanced Simple@L5
Format settings, BVOP : 2
Format settings, QPel : No
Format settings, GMC : No warppoints
Format settings, Matrix : Default (H.263)
Muxing mode : Packed bitstream
Codec ID : XVID
Codec ID/Hint : XviD
Duration : 1h 7mn
Bit rate : 2 203 Kbps
Width : 720 pixels
Height : 544 pixels
Display aspect ratio : 4:3
Frame rate : 25.000 fps
Color space : YUV
Chroma subsampling : 4:2:0
Bit depth : 8 bits
Scan type : Progressive
Compression mode : Lossy
Bits/(Pixel*Frame) : 0.225
Stream size : 1.04 GiB (92%)
Writing library : XviD 65

Audio
ID : 1
Format : MPEG Audio
Format version : Version 1
Format profile : Layer 3
Mode : Joint stereo
Mode extension : MS Stereo
Codec ID : 55
Codec ID/Hint : MP3
Duration : 1h 7mn
Bit rate mode : Constant
Bit rate : 192 Kbps
Channel(s) : 2 channels
Sampling rate : 48.0 KHz
Compression mode : Lossy
Stream size : 93.2 MiB (8%)
Alignment : Aligned on interleaves
Interleave, duration : 40 ms (1.00 video frame)
Interleave, preload duration : 504 ms
Writing library : LAME3.98r
Encoding settings : -m j -V 4 -q 3 -lowpass 18.6 -b 192

=================================

Исходником послужил релиз DVB от Cheef mate (запись потока со спутника EUTELSAT, ремукс в *.mpg программой VideoReDo),
взятый с Рутрекера, за что ему БОЛЬШОЕ СПАСИБО!



Архивы созданы RAR-архиватором с добавлением 3% на восстановление и снабжены sfv-проверочником.
Просьба к первому скачавшему отписаться о сохранности архивов на источнике раздачи.

Раздача рассчитана на месяц.

ПРИЯТНОГО ВСЕМ ПРОСМОТРА !!!


Другое участие: Chiefmate – предоставление исходной записи
Фильм залит в архив.




--------------------
Безоблачная старость – это миф,
Поскольку наша память – ширь морская,
И к ночи начинается прилив,
Со дна обломки прошлого таская.
Игорь Губерман

Скрыть подпись


RussianGuy
№2 Отправлено: 8.01.2017 - 05:56


Завсегдатай

Группа: Потребители
Регистрация: 12.02.2007
Сообщений: 326
Обитает:
Последний раз был:
cегодня в 00:21




Архивы в порядке. Спасибо
Top
bornik
№3 Отправлено: 8.01.2017 - 06:11


Воспоминания - это богатства старости.

Группа: Модераторы
Регистрация: 18.08.2008
Сообщений: 966
Обитает:
Последний раз был:
cегодня в 02:16




Цитата
( RussianGuy @ 8.01.2017 - 05:56)
Архивы в порядке. Спасибо

И Вам, RussianGuy, спасибо за добрую весть. happy_fly.gif


--------------------
Безоблачная старость – это миф,
Поскольку наша память – ширь морская,
И к ночи начинается прилив,
Со дна обломки прошлого таская.
Игорь Губерман

Скрыть подпись
Top
bornik
№4 Отправлено: 4.03.2017 - 02:59


Воспоминания - это богатства старости.

Группа: Модераторы
Регистрация: 18.08.2008
Сообщений: 966
Обитает:
Последний раз был:
cегодня в 02:16




Всем спасибо.
Очередь закрыта. Если есть желающие - пишите в ПМ. wink2.gif


--------------------
Безоблачная старость – это миф,
Поскольку наша память – ширь морская,
И к ночи начинается прилив,
Со дна обломки прошлого таская.
Игорь Губерман

Скрыть подпись
Top
1 человек просматривает эту тему (1 гость)
« Предыдущая тема | Детский киносеанс | Следующая тема »


 



[Script Execution time: 0,0207]   [24 queries used]   [GZIP enabled]