Заходят многие - остаются лучшие!
Здравствуйте Гость ( Вход | Регистрация ) Выслать повторно письмо для активации
Вход
Ваше имя Пароль Забыли пароль?
Запомнить Вас?
Войти скрытым?



Новые сообщения раздела  

 

 Библейский сюжет. Виктор Астафьев. Прокляты и убиты (2017), Авторская программа Дмитрия Менделеева
Alevtina
  №1 Отправлено: 9.11.2017 - 18:29


Время камни собирать...

Группа: Аксакалы
Регистрация: 12.02.2009
Сообщений: 5571
Обитает:
Последний раз был:
вчера в 18:40




Библейский сюжет. Виктор Астафьев. "Прокляты и убиты"



В рамках проекта -

Год выпуска: 2017

Страна: Россия

Режиссер: Ольга Жукова

Студия: ООО Студия "Неофит"

Автор и ведущий: Дмитрий Менделеев


Обращение великих художников к Библии никогда не заканчивалось только иллюстрацией того или иного сюжета Вечной Книги. Оно всегда предполагало личное осмысление. Художник выбирал библейскую историю, чтобы рассказать о себе, о своем времени, чтобы глубже постичь смысл происходящего.
Язык образов Святого Писания был универсален и понятен для всех. Но теперь для нас этот язык наполовину забыт. Мы уже не можем так ясно, с листа, читать всё, что говорили в своих произведениях художники, поэты, композиторы и писатели прошлого. Мы более опираемся на чувственное восприятие, которое все же является только частью замысла, его внешней стороной. В программе "Библейский сюжет" делается попытка соединить "прекрасного разрозненные части", по-другому взглянуть на всемирно известные произведения искусства, рассказать о судьбе их создателей.


Описание:

ВИКТОР АСТАФЬЕВ. "Прокляты и убиты".

"У меня вот бабушка Секлетинья неученая, но никогда не брала чужого, не обманывала никого, не врала никому, всем помогала, знала много молитв, дык вот ей бы комиссаром-то, духовником-то быть, а не вам. Знаете, какую стихиру она часто повторяла?
- Какую же? Любопытно, любопытно, - снисходительно улыбался капитан Мельников.
- Я точно-то не помню, вертоголовый был, худо молился, вот и не могу теперь отмолиться, писано было что все, кто сеет на земле смуту, войны и братоубийство, будут Богом прокляты и убиты". Виктор Астафьев. "Прокляты и убиты".

В этом романе Виктора Петровича страшная окопная правда Отечественной войны. Его правда, потому что он описывает тот ад, через который ему пришлось самому пройти. И правда Высшая - это взгляд на историю глазами веры.


За постер спасибо bornik!


Media-info:


Format : AVI
Format/Info : Audio Video Interleave
File size : 402 MiB
Duration : 26mn 20s
Overall bit rate : 2 132 Kbps
Writing application : VirtualDubMod 1.5.10.2 (build 2540/release)
Writing library : VirtualDubMod build 2540/release

Video
ID : 0
Format : MPEG-4 Visual
Format profile : Advanced Simple@L5
Format settings, BVOP : 2
Format settings, QPel : No
Format settings, GMC : No warppoints
Format settings, Matrix : Default (H.263)
Muxing mode : Packed bitstream
Codec ID : XVID
Codec ID/Hint : XviD
Duration : 26mn 20s
Bit rate : 1 994 Kbps
Width : 720 pixels
Height : 400 pixels
Display aspect ratio : 16:9
Frame rate : 25.000 fps
Color space : YUV
Chroma subsampling : 4:2:0
Bit depth : 8 bits
Scan type : Progressive
Compression mode : Lossy
Bits/(Pixel*Frame) : 0.277
Stream size : 376 MiB (94%)
Writing library : XviD 65

Audio
ID : 1
Format : MPEG Audio
Format version : Version 1
Format profile : Layer 3
Mode : Joint stereo
Mode extension : MS Stereo
Codec ID : 55
Codec ID/Hint : MP3
Duration : 26mn 19s
Bit rate mode : Constant
Bit rate : 128 Kbps
Channel(s) : 2 channels
Sampling rate : 48.0 KHz
Compression mode : Lossy
Stream size : 24.1 MiB (6%)
Alignment : Aligned on interleaves
Interleave, duration : 40 ms (1.00 video frame)
Interleave, preload duration : 504 ms
Writing library : LAME3.98.2



Скриншоты:






Записались на автоматическое включение в очередь:
baziss, Snara, valbar, vyur, RussianGuy, Marrina, медикус, mosk7, Nadejdaenergia, ILIA, Masjanja, ajlinn, oldfanat, bondsun, mikhailk, medandrey, oster47, Tanjusha, andrusenko, rittaa.

Если вы хотите, чтобы вас автоматически ставили в очередь на следующие выпуски данного цикла, - сообщите об этом в теме последней раздачи.




Это сообщение отредактировал Alevtina - 18.11.2017 - 10:58


--------------------

Прохожие, купите Доброту!
Лишь за улыбку! Разве ж это много!
Исполните заветную мечту…
И хоть одну из Заповедей Бога!
Снимите маски «гордых» и «крутых»
Купите, хоть немножечко, Терпенья.
И ощутите сердцем, хоть на миг,
Всю прелесть и восторг благодаренья!
Сегодня, АКЦИЯ на Совесть и Любовь!
Притормозите «хаммер» свой, иль «буммер»!
Купите! И волнуйте свою кровь!
От этого ещё никто не умер!


Скрыть подпись


neoptolem
№2 Отправлено: 9.11.2017 - 18:55


Посетитель

Группа: Активисты
Регистрация: 16.04.2007
Сообщений: 117
Обитает:
Последний раз был:
16.11.2017 - 16:55




Спасибо за раздачу!!!
Скачалось и открылось.
Top
Alevtina
№3 Отправлено: 9.11.2017 - 19:47


Время камни собирать...

Группа: Аксакалы
Регистрация: 12.02.2009
Сообщений: 5571
Обитает:
Последний раз был:
вчера в 18:40




neoptolem, благодарю за весть!


--------------------

Прохожие, купите Доброту!
Лишь за улыбку! Разве ж это много!
Исполните заветную мечту…
И хоть одну из Заповедей Бога!
Снимите маски «гордых» и «крутых»
Купите, хоть немножечко, Терпенья.
И ощутите сердцем, хоть на миг,
Всю прелесть и восторг благодаренья!
Сегодня, АКЦИЯ на Совесть и Любовь!
Притормозите «хаммер» свой, иль «буммер»!
Купите! И волнуйте свою кровь!
От этого ещё никто не умер!


Скрыть подпись
Top
Masjanja
№4 Отправлено: 16.11.2017 - 10:17


Старожил

Группа: Потребители
Регистрация: 16.03.2010
Сообщений: 592
Обитает:
Последний раз был:
позавчера в 15:21




Огромное спасибо что подождали!!!!!!!!
Top
Alevtina
№5 Отправлено: 16.11.2017 - 20:11


Время камни собирать...

Группа: Аксакалы
Регистрация: 12.02.2009
Сообщений: 5571
Обитает:
Последний раз был:
вчера в 18:40




Masjanja,
Цитата
Огромное спасибо что подождали!!!!!!!!
Если где не получилось подождать, можем восстановить во всех правах.... yes.gif


--------------------

Прохожие, купите Доброту!
Лишь за улыбку! Разве ж это много!
Исполните заветную мечту…
И хоть одну из Заповедей Бога!
Снимите маски «гордых» и «крутых»
Купите, хоть немножечко, Терпенья.
И ощутите сердцем, хоть на миг,
Всю прелесть и восторг благодаренья!
Сегодня, АКЦИЯ на Совесть и Любовь!
Притормозите «хаммер» свой, иль «буммер»!
Купите! И волнуйте свою кровь!
От этого ещё никто не умер!


Скрыть подпись
Top
1 человек просматривает эту тему (1 гость)
« Предыдущая тема | Мир и люди искусства | Следующая тема »


 



[Script Execution time: 0,1760]   [22 queries used]   [GZIP enabled]