Заходят многие - остаются лучшие!
Здравствуйте Гость ( Вход | Регистрация ) Выслать повторно письмо для активации
Вход
Ваше имя Пароль Забыли пароль?
Запомнить Вас?
Войти скрытым?



Новые сообщения раздела  

 

 Мурены. Чужая империя / National Geographic. Moray Eels. Alien empire (2010), National Geographic
bornik
  №1 Отправлено: 12.04.2017 - 02:25


Воспоминания - это богатства старости.

Группа: Модераторы
Регистрация: 18.08.2008
Сообщений: 876
Обитает:
Последний раз был:
cегодня в 20:40




Мурены. Чужая империя / National Geographic. Moray Eels. Alien empire (2010)



«Мурены» - главный подводный хищник, имеющий печальную славу среди дайверов.

Название: Мурены. Чужая империя
Оригинальное название: Moray Eels. Alien empire
Год выпуска: 2010
Жанр: Документальный, природа, фауна, флора
Выпущено: Германия, Tesche Dokumentarfilm, Parthenon Entertainment Ltd, National Geographic
Продолжительность: 00:44:59
Субтитры: Русские (мои)

Режиссёр: Сигурд Теше / Sigurd Tesche
Продюссер: Дэвид Уайтхед / David Whitehead

Фильм переведён на студии "АРК•ТВ"
Текст читает: Игорь Тарадайкин

Описание: Загляните в причудливый мир мурен и узнайте о том, что сделало этих хищников настолько успешными и хорошо адаптирующимися.
Мурена - безжалостный и невероятно опасный подводный охотник и хищник, один вид которого внушает страх и восхищение. Вырастая до трех метров в длину, эти морские гиганты способны молниеносно атаковать свою жертву, впиваясь острыми зубами в беспомощных обитателей морей и океанов. Более того, зафиксированы не единичны случаи атак на дайверов-аквалангистов. Прячась между кораллами и рифами, камнями на дне, мурена способна сидеть в засаде до тех пор, пока не заметит очередную жертву, после чего стрелой бросается на обреченную рыбу или осьминога. Чтобы узнать как можно больше об этом до сих пор мало изученном и таком загадочном существе, ведущие ученые, кинематографисты и мореплаватели отправляются в незабываемое путешествие, во время которого познакомят нас с новыми фактами и развеют мифы.







General
Complete name : C:\DVD documental fimls\Мурены\Мурены. Чужая империя (2010).avi
Format : AVI
Format/Info : Audio Video Interleave
File size : 710 MiB
Duration : 44mn 59s
Overall bit rate : 2 205 Kbps
Writing application : VirtualDubMod 1.5.10.2 (build 2540/release)
Writing library : VirtualDubMod build 2540/release

Video
ID : 0
Format : MPEG-4 Visual
Format profile : Advanced Simple@L5
Format settings, BVOP : 2
Format settings, QPel : No
Format settings, GMC : No warppoints
Format settings, Matrix : Default (H.263)
Muxing mode : Packed bitstream
Codec ID : XVID
Codec ID/Hint : XviD
Duration : 44mn 59s
Bit rate : 2 003 Kbps
Width : 720 pixels
Height : 400 pixels
Display aspect ratio : 16:9
Frame rate : 25.000 fps
Color space : YUV
Chroma subsampling : 4:2:0
Bit depth : 8 bits
Scan type : Progressive
Compression mode : Lossy
Bits/(Pixel*Frame) : 0.278
Stream size : 645 MiB (91%)
Writing library : XviD 65

Audio
ID : 1
Format : MPEG Audio
Format version : Version 1
Format profile : Layer 3
Mode : Joint stereo
Mode extension : MS Stereo
Codec ID : 55
Codec ID/Hint : MP3
Duration : 44mn 59s
Bit rate mode : Constant
Bit rate : 192 Kbps
Channel(s) : 2 channels
Sampling rate : 48.0 KHz
Compression mode : Lossy
Stream size : 61.8 MiB (9%)
Alignment : Aligned on interleaves
Interleave, duration : 40 ms (1.00 video frame)
Interleave, preload duration : 504 ms
Writing library : LAME3.98r
Encoding settings : -m j -V 4 -q 3 -lowpass 18.6 -b 192


=================================

Исходником послужил релиз HDTV, найденный на просторах инета!

Архивы созданы RAR-архиватором с добавлением 3% на восстановление и снабжены sfv-проверочником.
Просьба к первому скачавшему отписаться о сохранности архивов на источнике раздачи.

Раздача рассчитана на месяц.

ПРИЯТНОГО ВСЕМ ПРОСМОТРА !!!




--------------------
Безоблачная старость – это миф,
Поскольку наша память – ширь морская,
И к ночи начинается прилив,
Со дна обломки прошлого таская.
Игорь Губерман

Скрыть подпись


kyo
№2 Отправлено: 12.04.2017 - 18:27


Живёт здесь

Группа: Потребители
Регистрация: 21.07.2007
Сообщений: 1706
Обитает:
Последний раз был:
cегодня в 19:27




Архивы в порядке, спасибо !
Top
bornik
№3 Отправлено: 12.04.2017 - 20:29


Воспоминания - это богатства старости.

Группа: Модераторы
Регистрация: 18.08.2008
Сообщений: 876
Обитает:
Последний раз был:
cегодня в 20:40




Цитата
( kyo @ 12.04.2017 - 18:27)
Архивы в порядке, спасибо !

И Вам, kyo, спасибо за добрую весть. happy_fly.gif


--------------------
Безоблачная старость – это миф,
Поскольку наша память – ширь морская,
И к ночи начинается прилив,
Со дна обломки прошлого таская.
Игорь Губерман

Скрыть подпись
Top
1 человек просматривает эту тему (1 гость)
« Предыдущая тема | Мир вокруг нас | Следующая тема »


 



[Script Execution time: 0,0251]   [23 queries used]   [GZIP enabled]