Заходят многие - остаются лучшие!
Здравствуйте Гость ( Вход | Регистрация ) Выслать повторно письмо для активации
Вход
Ваше имя Пароль Забыли пароль?
Запомнить Вас?
Войти скрытым?



Новые сообщения раздела  

 

 Библейский сюжет. Лион Фейхтвангер. Иеффай и его дочь (2017), Авторская программа Дмитрия Менделеева.
Alevtina
  №1 Отправлено: 12.04.2017 - 20:42


Время камни собирать...

Группа: Аксакалы
Регистрация: 12.02.2009
Сообщений: 5542
Обитает:
Последний раз был:
вчера в 20:04




Библейский сюжет. Лион Фейхтвангер. "Иеффай и его дочь"



В рамках проекта -

Год выпуска: 2017

Страна: Россия

Режиссер: Ольга Жукова

Студия: ООО Студия "Неофит"

Субтитры: нет

Автор и ведущий: Дмитрий Менделеев


Обращение великих художников к Библии никогда не заканчивалось только иллюстрацией того или иного сюжета Вечной Книги. Оно всегда предполагало личное осмысление. Художник выбирал библейскую историю, чтобы рассказать о себе, о своем времени, чтобы глубже постичь смысл происходящего.
Язык образов Святого Писания был универсален и понятен для всех. Но теперь для нас этот язык наполовину забыт. Мы уже не можем так ясно, с листа, читать всё, что говорили в своих произведениях художники, поэты, композиторы и писатели прошлого. Мы более опираемся на чувственное восприятие, которое все же является только частью замысла, его внешней стороной. В программе "Библейский сюжет" делается попытка соединить "прекрасного разрозненные части", по-другому взглянуть на всемирно известные произведения искусства, рассказать о судьбе их создателей.


Описание:

Книгу об Иеффае-Ифтахе Фейхтвангер писал всю жизнь. Впервые отголоски библейской трагедии появляются в его пьесе Еврей Зюсс, которую он опубликовал в 1916 году, после того, как его демобилизовали по здоровью, но после погромов отозвал со сцены, превратив ее в исторический роман. Сам же "Иеффай" стал его последней книгой.



За постер благодарю bornik! Спасибо!


Media-info:


Format : AVI
Format/Info : Audio Video Interleave
File size : 398 MiB
Duration : 26mn 2s
Overall bit rate : 2 137 Kbps
Writing application : VirtualDubMod 1.5.10.2 (build 2540/release)
Writing library : VirtualDubMod build 2540/release

Video
ID : 0
Format : MPEG-4 Visual
Format profile : Advanced Simple@L5
Format settings, BVOP : 1
Format settings, QPel : No
Format settings, GMC : No warppoints
Format settings, Matrix : Default (H.263)
Muxing mode : Packed bitstream
Codec ID : XVID
Codec ID/Hint : XviD
Duration : 26mn 2s
Bit rate : 2 000 Kbps
Width : 720 pixels
Height : 400 pixels
Display aspect ratio : 16:9
Frame rate : 25.000 fps
Color space : YUV
Chroma subsampling : 4:2:0
Bit depth : 8 bits
Scan type : Progressive
Compression mode : Lossy
Bits/(Pixel*Frame) : 0.278
Stream size : 373 MiB (94%)
Writing library : XviD 65

Audio
ID : 1
Format : MPEG Audio
Format version : Version 1
Format profile : Layer 3
Mode : Joint stereo
Mode extension : MS Stereo
Codec ID : 55
Codec ID/Hint : MP3
Duration : 26mn 2s
Bit rate mode : Constant
Bit rate : 128 Kbps
Channel(s) : 2 channels
Sampling rate : 48.0 KHz
Compression mode : Lossy
Stream size : 23.8 MiB (6%)
Alignment : Aligned on interleaves
Interleave, duration : 40 ms (1.00 video frame)
Interleave, preload duration : 504 ms
Writing library : LAME3.98r
Encoding settings : -m j -V 4 -q 3 -lowpass 17 -b 128



Скриншоты:








Записались на автоматическое включение в очередь:
baziss, Snara, valbar, vyur, RussianGuy, Marrina, медикус, mosk7, Nadejdaenergia, ILIA, Masjanja, ajlinn, oldfanat, bondsun, mikhailk, medandrey, oster47, Tanjusha, andrusenko, rittaa.

Если вы хотите, чтобы вас автоматически ставили в очередь на следующие выпуски данного цикла, - сообщите об этом в теме последней раздачи.




Это сообщение отредактировал Alevtina - 22.04.2017 - 07:27


--------------------

Прохожие, купите Доброту!
Лишь за улыбку! Разве ж это много!
Исполните заветную мечту…
И хоть одну из Заповедей Бога!
Снимите маски «гордых» и «крутых»
Купите, хоть немножечко, Терпенья.
И ощутите сердцем, хоть на миг,
Всю прелесть и восторг благодаренья!
Сегодня, АКЦИЯ на Совесть и Любовь!
Притормозите «хаммер» свой, иль «буммер»!
Купите! И волнуйте свою кровь!
От этого ещё никто не умер!


Скрыть подпись


медикус
№2 Отправлено: 12.04.2017 - 23:25


Живёт здесь

Группа: Модераторы
Регистрация: 22.07.2008
Сообщений: 9159
Обитает:
Последний раз был:
13.09.2017 - 22:47
С 14.09.17 на пару недель




Спасибо, архивы ОК.


--------------------
"Тихо шифером шурша,
Крыша едет не спеша..."
Не помню, кто написал, но дома с этим согласны yes.gif

ПРОЕКТ: В музей - без поводка

Скрыть подпись
Top
Alevtina
№3 Отправлено: 14.04.2017 - 11:47


Время камни собирать...

Группа: Аксакалы
Регистрация: 12.02.2009
Сообщений: 5542
Обитает:
Последний раз был:
вчера в 20:04




медикус, благодарю за весть!!!


--------------------

Прохожие, купите Доброту!
Лишь за улыбку! Разве ж это много!
Исполните заветную мечту…
И хоть одну из Заповедей Бога!
Снимите маски «гордых» и «крутых»
Купите, хоть немножечко, Терпенья.
И ощутите сердцем, хоть на миг,
Всю прелесть и восторг благодаренья!
Сегодня, АКЦИЯ на Совесть и Любовь!
Притормозите «хаммер» свой, иль «буммер»!
Купите! И волнуйте свою кровь!
От этого ещё никто не умер!


Скрыть подпись
Top
1 человек просматривает эту тему (1 гость)
« Предыдущая тема | Мир и люди искусства | Следующая тема »


 



[Script Execution time: 0,0800]   [23 queries used]   [GZIP enabled]