Заходят многие - остаются лучшие!
Здравствуйте Гость ( Вход | Регистрация ) Выслать повторно письмо для активации
Вход
Ваше имя Пароль Забыли пароль?
Запомнить Вас?
Войти скрытым?



Новые сообщения раздела  

 

 Пророки. Иеремия. (2017), Цикл передач (12 серия из 12-и)
Alevtina
  №1 Отправлено: 16.05.2017 - 19:30


Время камни собирать...

Группа: Аксакалы
Регистрация: 12.02.2009
Сообщений: 5497
Обитает:
На форуме с:
cегодня в 18:11




Пророки. Иеремия.



Производство: ООО Студия "Неофит"

Год выпуска: 2017

Автор: Юлия Варенцова.

Режиссер-постановщик: Константин Голенчик.

12 серия из 12

Описание:


В иудео-христианском богословии пророки — провозвестники воли Бога, проповедовавшие на территории древних Израиля и Иудеи.

О величайшем пророке Ветхого Завета Моисее, о пророке Самуиле, который сыграл огромную роль в становлении народа Божьего, о знаменитом царе Израиля Давиде, которого почитают пророком и христиане, и мусульмане и других.

Принимают участие библеисты и историки из России и Израиля.


Фильм 12. Иеремия.

Фильм с участием израильских и российских библеистов рассказывает о ветхозаветном пророке Иеремии. Как священник Иеремия превратился в диссидента и "врага народа"? Зачем он ходил по улицам с ярмом на шее и покупал землю в разгар войны? Как пророк Иеремия возвестил Новый Завет за шесть веков до Христа? И почему до сих пор ежегодно, в день национального траура в Израиле, у Стены Плача звучит "Плач Иеремии"?



Раздача 1-3 серии
Раздача 4-7 серии



Медиа-инфо:

Format : AVI
Format/Info : Audio Video Interleave
File size : 439 MiB
Duration : 26mn 14s
Overall bit rate : 2 336 Kbps
Writing application : VirtualDubMod 1.5.10.2 (build 2540/release)
Writing library : VirtualDubMod build 2540/release

Video
ID : 0
Format : MPEG-4 Visual
Format profile : Advanced Simple@L5
Format settings, BVOP : 2
Format settings, QPel : No
Format settings, GMC : No warppoints
Format settings, Matrix : Default (H.263)
Muxing mode : Packed bitstream
Codec ID : XVID
Codec ID/Hint : XviD
Duration : 26mn 14s
Bit rate : 2 198 Kbps
Width : 720 pixels
Height : 400 pixels
Display aspect ratio : 16:9
Frame rate : 25.000 fps
Color space : YUV
Chroma subsampling : 4:2:0
Bit depth : 8 bits
Scan type : Progressive
Compression mode : Lossy
Bits/(Pixel*Frame) : 0.305
Stream size : 413 MiB (94%)
Writing library : XviD 65

Audio
ID : 1
Format : MPEG Audio
Format version : Version 1
Format profile : Layer 3
Mode : Joint stereo
Mode extension : MS Stereo
Codec ID : 55
Codec ID/Hint : MP3
Duration : 26mn 14s
Bit rate mode : Constant
Bit rate : 128 Kbps
Channel(s) : 2 channels
Sampling rate : 48.0 KHz
Compression mode : Lossy
Stream size : 24.0 MiB (5%)
Alignment : Aligned on interleaves
Interleave, duration : 40 ms (1.00 video frame)
Interleave, preload duration : 504 ms
Writing library : LAME3.98r
Encoding settings : -m j -V 4 -q 3 -lowpass 17 -b 128



СКРИНШОТЫ:





В первой раздаче были записаны на продолжение: YuraJdan, chayka2, Nadejdaenergia, Masjanja, медикус, Inchik1, sobinov, Tanjusha, Galina1958, RussianGuy, ajlinn, grival406, Fil6869




Это сообщение отредактировал Alevtina - 17.05.2017 - 13:11


--------------------

Прохожие, купите Доброту!
Лишь за улыбку! Разве ж это много!
Исполните заветную мечту…
И хоть одну из Заповедей Бога!
Снимите маски «гордых» и «крутых»
Купите, хоть немножечко, Терпенья.
И ощутите сердцем, хоть на миг,
Всю прелесть и восторг благодаренья!
Сегодня, АКЦИЯ на Совесть и Любовь!
Притормозите «хаммер» свой, иль «буммер»!
Купите! И волнуйте свою кровь!
От этого ещё никто не умер!


Скрыть подпись
bondsun
№2 Отправлено: 16.05.2017 - 19:43


кучерявый

Группа: Потребители
Регистрация: 17.08.2009
Сообщений: 4106
Обитает:
Последний раз был:
cегодня в 14:17





Благодарствую, архив в порядке.


--------------------
Пусть рушится мир весь вокруг, пополам,
Пусть часто фортуна не прёт.
Не кофе нас должен бодрить по утрам,
А тот, кто его подаёт.

happy.gif

Скрыть подпись
Top
Alevtina
№3 Отправлено: 16.05.2017 - 21:24


Время камни собирать...

Группа: Аксакалы
Регистрация: 12.02.2009
Сообщений: 5497
Обитает:
На форуме с:
cегодня в 18:11




bondsun, благодарю за весть!


--------------------

Прохожие, купите Доброту!
Лишь за улыбку! Разве ж это много!
Исполните заветную мечту…
И хоть одну из Заповедей Бога!
Снимите маски «гордых» и «крутых»
Купите, хоть немножечко, Терпенья.
И ощутите сердцем, хоть на миг,
Всю прелесть и восторг благодаренья!
Сегодня, АКЦИЯ на Совесть и Любовь!
Притормозите «хаммер» свой, иль «буммер»!
Купите! И волнуйте свою кровь!
От этого ещё никто не умер!


Скрыть подпись
Top
1 человек просматривает эту тему (1 гость)
« Предыдущая тема | Летопись времён и идей | Следующая тема »


 



[Script Execution time: 0,0240]   [23 queries used]   [GZIP enabled]