Заходят многие - остаются лучшие!
Здравствуйте Гость ( Вход | Регистрация ) Выслать повторно письмо для активации
Вход
Ваше имя Пароль Забыли пароль?
Запомнить Вас?
Войти скрытым?



Новые сообщения раздела  

 

 Виктор Тихонов. Последний из атлантов (2015г.), документальный, спорт
Nadejdaenergia
  №1 Отправлено: 3.03.2018 - 17:23


Когда всё плохое уходит, остаётся только хорошее.

Группа: Модераторы
Регистрация: 21.03.2012
Сообщений: 6237
Обитает:
Последний раз был:
19.09.2018 - 17:57




Виктор Тихонов. Последний из атлантов


Описание

Ви́ктор Васи́льевич Ти́хонов (4 июня 1930, Москва — 24 ноября 2014, Москва) — советский хоккеист и хоккейный тренер. В качестве главного тренера трижды приводил сборную СССР и Объединённую команду к титулу олимпийского чемпиона и восемь раз - к титулу чемпиона мира, а московский ЦСКА - 12 раз к званию чемпиона СССР. Заслуженный тренер СССР. Заслуженный работник физической культуры Российской Федерации. Мастер спорта СССР, полковник в отставке.


Оригинальное название: Виктор Тихонов. Последний из атлантов
Год выпуска: 2015
Страна: Россия
Студия: Первый Канал HD
Жанр: Документальный
Продолжительность: 0:49:47
Авторы: Алексей Васильев, Елена Трифонова, Елена Метелица
Продюсер: Алексей Васильев
Режиссер: Александр Михайлов

Описание: В свой ближний круг легендарный тренер сборной СССР по хоккею Виктор Васильевич Тихонов никого из посторонних не пускал. И потому в нашей памяти он остался героем кинохроники о великих спортивных победах. Благодаря откровенным воспоминаниям близких – жены Татьяны Васильевны, внуку Виктору Тихонову-младшему у нас есть возможность узнать о том, какую жизнь Тихонов прожил за пределами хоккейной площадки.



MediaInfoLib - v0.7.70

General
Complete name : Viktor.Tihonov.Poslednij.iz.atlantov.2015.fenixclub.com.avi
Format : AVI
Format/Info : Audio Video Interleave
File size : 749 MiB
Duration : 49mn 47s
Overall bit rate : 2 102 Kbps
Writing application : VirtualDubMod 1.5.10.3 | www.virtualdub-fr.org || (build 2550/release)
Writing library : VirtualDubMod build 2550/release

Video
ID : 0
Format : MPEG-4 Visual
Format profile : Advanced Simple@L5
Format settings, BVOP : 1
Format settings, QPel : No
Format settings, GMC : No warppoints
Format settings, Matrix : Default (MPEG)
Codec ID : DX50
Codec ID/Hint : DivX 5
Duration : 49mn 47s
Bit rate : 1 900 Kbps
Width : 720 pixels
Height : 400 pixels
Display aspect ratio : 16:9
Frame rate : 25.000 fps
Color space : YUV
Chroma subsampling : 4:2:0
Bit depth : 8 bits
Scan type : Progressive
Compression mode : Lossy
Bits/(Pixel*Frame) : 0.264
Stream size : 677 MiB (90%)
Writing library : XviD 1.2.1 (UTC 2008-12-04)

Audio
ID : 1
Format : AC-3
Format/Info : Audio Coding 3
Mode extension : CM (complete main)
Format settings, Endianness : Big
Codec ID : 2000
Duration : 49mn 47s
Bit rate mode : Constant
Bit rate : 192 Kbps
Channel(s) : 2 channels
Channel positions : Front: L R
Sampling rate : 48.0 KHz
Bit depth : 16 bits
Compression mode : Lossy
Stream size : 68.4 MiB (9%)
Alignment : Split accross interleaves
Interleave, duration : 40 ms (1.00 video frame)
Interleave, preload duration : 500 ms





В записи трансляции присутствуют баннеры анонсов передач




Исходником послужил HDTVRip 720p. Автор рипа: lrn. Автор записи: riper.am

Архив создан архиватором RAR и снабжён sfv-проверочником. Раздача рассчитана на месяц.

Просьба первым скачавшим сообщить о состоянии архива.




--------------------


1. Только надеяться - мало толка.
И все-таки, разумеется,
надо надеяться, но только
НЕ ТОЛЬКО надеяться.

2. Мудрость простейших истин признав,
Повесь на стену себе
Знак сокровенный, таинственный Знак
ВТВ.
И если к вершине долгий путь
Стал непосильным бременем –
Вспомни, прежде чем повернуть:
Всё Требует Времени…


Piet Hein Jr.

Скрыть подпись


vjub58
№2 Отправлено: 3.03.2018 - 17:44


Практикующий эсквайр

Группа: Аксакалы
Регистрация: 6.12.2005
Сообщений: 4801
Обитает:
Последний раз был:
cегодня в 13:33




Спасибо, все ОК. pozdrav_buket.gif
Top
Nadejdaenergia
№3 Отправлено: 4.03.2018 - 09:09


Когда всё плохое уходит, остаётся только хорошее.

Группа: Модераторы
Регистрация: 21.03.2012
Сообщений: 6237
Обитает:
Последний раз был:
19.09.2018 - 17:57




vjub58, благодарю за архивы!


--------------------


1. Только надеяться - мало толка.
И все-таки, разумеется,
надо надеяться, но только
НЕ ТОЛЬКО надеяться.

2. Мудрость простейших истин признав,
Повесь на стену себе
Знак сокровенный, таинственный Знак
ВТВ.
И если к вершине долгий путь
Стал непосильным бременем –
Вспомни, прежде чем повернуть:
Всё Требует Времени…


Piet Hein Jr.

Скрыть подпись
Top
Nadejdaenergia
№4 Отправлено: 25.04.2018 - 16:15


Когда всё плохое уходит, остаётся только хорошее.

Группа: Модераторы
Регистрация: 21.03.2012
Сообщений: 6237
Обитает:
Последний раз был:
19.09.2018 - 17:57




Все заливы на Облако сохраняются. При желании скачать пишите в ПМ.


--------------------


1. Только надеяться - мало толка.
И все-таки, разумеется,
надо надеяться, но только
НЕ ТОЛЬКО надеяться.

2. Мудрость простейших истин признав,
Повесь на стену себе
Знак сокровенный, таинственный Знак
ВТВ.
И если к вершине долгий путь
Стал непосильным бременем –
Вспомни, прежде чем повернуть:
Всё Требует Времени…


Piet Hein Jr.

Скрыть подпись
Top
1 человек просматривает эту тему (1 гость)
« Предыдущая тема | О спорт, ты - мир! | Следующая тема »


 



[Script Execution time: 0,0284]   [22 queries used]   [GZIP enabled]