Заходят многие - остаются лучшие!
Здравствуйте Гость ( Вход | Регистрация ) Выслать повторно письмо для активации
Вход
Ваше имя Пароль Забыли пароль?
Запомнить Вас?
Войти скрытым?



 Правила раздела Новые сообщения раздела  


 

 Гайчи (1938), Детский,шпионский;Реж.-В.Шнейдеров;Роли-Э.Манджиев,Г.Субботин,П.Савин
SanSan48
  №1 Отправлено: 14.02.2018 - 13:57


"Спартак" - ЧЕМПИОН!!!

Группа: Пользователи
Регистрация: 28.12.2009
Сообщений: 1901
Обитает:
Последний раз был:
17.06.2018 - 13:29




Гайчи (1938)



Предыдущая раздача:
16.03.2016 (TVRip)

Жанр: Детский, шпионский
Выпущено: СССР, Союздетфильм
Год выпуска: 1938
Премьера (СССР): 13 октября 1938
Премьера (мир): 31 марта 1950 (Германия (ГДР)), 11 мая 1950 (Австрия)
Сценарист: Валериан Москалевич
Оператор: Николай Прозоровский
Композитор: Зиновий Фельдман
Художники: Кира Геннингсон
Монтажёр: М.Усольцева

Режиссёр: Владимир Шнейдеров

В ролях:
Эрдык Манджиев ... Гайчи, пионер
Георгий Субботин ... Сапов, инженер
Виктор Третьяков ... Петров, инспектор, диверсант
В.Толгаев ... Олони, проводник, отец Гайчи
Юлия Цай ... Нан, учительница
Ю.Фей-Бустрем ... Толи
Пётр Савин … пограничник (эпизод)

Описание: Приключенческо-шпионский фильм о жизни нанайского народа и о бдительности советских людей.
В тайге остаётся на зимовку научная экспедиция. Результаты летних работ, имеющие большое оборонное значение, должны быть срочно доставлены в Москву. Шифрованные материалы отправляются с инженером Саповым в сопровождении проводника-нанайца, бывшего партизана Олони, который должен посадить инженера на самолет. На одной из стоянок к Сапову неожиданно является инспектор Петров, который в действительности является бывшим белогвардейцем Яныгой и в настоящее время служит в японской разведке. Цель диверсанта — похитить секретные документы и бежать на этом самолете за границу. Он убивает Олони и завербовывает Сапова, а в проводники берет пионера Гайчи, сына Олони. Мальчишка убеждается, что его спутники — враги советского народа. Мальчик бежит в стойбище и поднимает нанайцев. Перед самым вылетом Гайчи задерживает самолет и подоспевшие пограничники арестовывают врагов …

Дополнительная информация: Релиз:

Исходник найден в сети.

Автор рипа: pmv

* Информация из Аннотированного каталога Советских художественных фильмов за 1930-1957г.г. (том 2)
1466. «Гайчи». Приключ., 8 ч., 1938 м, Союздетфильм, 1938 г.,
ВЭ 13.Х.1938 г.
Авт сцен. В. Москалевич; реж. В. Шнейдеров; опер. Н. Прозоровский;
худ. К. Геннингсон; композ. 3. Фельдман; звукоопер. А. Машистов.
Ассист. реж. М. Пярн, К.Альперова; монтаж. М. Усольцева.
В ролях: Э.Манджиев (Гайчи), Г.Субботин (Сапов, инженер), В.Третьяков (Петров, инспектор), Ю.Цай (Нан, учительница), В.Толгаев (Олони, проводник), Ю Фей-Бустрем (Толи).

IMDb = - (-) - http://www.imdb.com/title/tt1458741/
Кинопоиск = - (15) - https://www.kinopoisk.ru/film/gaychi-1938-623150/

ВНИМАНИЕ!!! РИП ФОРМАТА mkv (кодек H.264) ВОСПРОИЗВОДИТСЯ НЕ НА ВСЕХ БЫТОВЫХ ВИДЕОПЛЕЕРАХ!!!

Параметры файла:
Название: Гайчи (1938).mkv
Качество видео: WEB-DLrip
Формат видео: MKV
Размер: 744 МБ (780 639 366 байт)
Продолжительность: 01:01:28
Видео: AVC (H264), 720x552 (4:3), 25 fps, 1500 kbps, 0.151 Bits/Pixel
Аудио: AC3, 44.1 KHz, stereo (2 ch), 192 kbps



General
Unique ID : 190036838081628299708861689575009385957 (0x8EF7C381D4A1D567B857875A32877DE5)
Complete name : D:\torrents\Гайчи (1938).mkv
Format : Matroska
Format version : Version 4 / Version 2
File size : 744 MiB
Duration : 1 h 1 min
Overall bit rate : 1 693 kb/s
Encoded date : UTC 2018-02-14 08:47:48
Writing application : mkvmerge v6.7.0 ('Back to the Ground') 32bit built on Jan 8 2014 15:03:17
Writing library : libebml v1.3.0 + libmatroska v1.4.1

Video
ID : 1
Format : AVC
Format/Info : Advanced Video Codec
Format profile : High@L4.1
Format settings, CABAC : Yes
Format settings, ReFrames : 16 frames
Codec ID : V_MPEG4/ISO/AVC
Duration : 1 h 1 min
Bit rate : 1 500 kb/s
Width : 720 pixels
Height : 552 pixels
Display aspect ratio : 4:3
Frame rate mode : Constant
Frame rate : 25.000 FPS
Color space : YUV
Chroma subsampling : 4:2:0
Bit depth : 8 bits
Scan type : Progressive
Bits/(Pixel*Frame) : 0.151
Stream size : 645 MiB (87%)
Writing library : x264 core 146 r2538 121396c
Encoding settings : cabac=1 / ref=16 / deblock=1:0:0 / analyse=0x3:0x133 / me=umh / subme=10 / psy=1 / psy_rd=1.00:0.00 / mixed_ref=1 / me_range=24 / chroma_me=1 / trellis=2 / 8x8dct=1 / cqm=0 / deadzone=21,11 / fast_pskip=1 / chroma_qp_offset=-2 / threads=66 / lookahead_threads=4 / sliced_threads=0 / nr=0 / decimate=1 / interlaced=0 / bluray_compat=0 / constrained_intra=0 / bframes=8 / b_pyramid=2 / b_adapt=2 / b_bias=0 / direct=3 / weightb=1 / open_gop=0 / weightp=2 / keyint=250 / keyint_min=25 / scenecut=40 / intra_refresh=0 / rc_lookahead=60 / rc=2pass / mbtree=1 / bitrate=1500 / ratetol=1.0 / qcomp=0.60 / qpmin=0 / qpmax=69 / qpstep=4 / cplxblur=20.0 / qblur=0.5 / ip_ratio=1.40 / aq=1:1.00
Language : Russian
Default : Yes
Forced : No

Audio
ID : 2
Format : AC-3
Format/Info : Audio Coding 3
Mode extension : CM (complete main)
Format settings, Endianness : Big
Codec ID : A_AC3
Duration : 1 h 1 min
Bit rate mode : Constant
Bit rate : 192 kb/s
Channel(s) : 2 channels
Channel positions : Front: L R
Sampling rate : 44.1 kHz
Frame rate : 28.711 FPS (1536 spf)
Bit depth : 16 bits
Compression mode : Lossy
Stream size : 84.4 MiB (11%)
Language : Russian
Default : Yes
Forced : No









Sirge, 512x352, XviD, avi, 746.5 MB < > CaCa48, 720x552, AVC, mkv, 745 MB
http://fenixclub.com/index.php?showtopic=1...%E0%E9%F7%F7%E8
http://screenshotcomparison.com/comparison/131685

В раздачу по просьбе трудящихся добавлен фильм в формате AVI:
Ссылка на архивный файл: https://cloud.mail.ru/public/HC4A/9RkwELtZb
Пароль такой же, как и для файла формата MKV


МОИ РАЗДАЧИ НА ФЕНИКСе: ЗДЕСЬ




Это сообщение отредактировал SanSan48 - 18.02.2018 - 19:56


--------------------
"Спартак" - ЧЕМПИОН!!!

Скрыть подпись


sharky
№2 Отправлено: 14.02.2018 - 16:34


Человек дождя

Группа: Аксакалы
Регистрация: 7.09.2007
Сообщений: 10563
Обитает:
Последний раз был:
cегодня в 06:44
~




Спасибо.
Все в полном порядке.


--------------------

Лень - двигатель прогресса!

Скрыть подпись
Top
SanSan48
№3 Отправлено: 14.02.2018 - 17:19


"Спартак" - ЧЕМПИОН!!!

Группа: Пользователи
Регистрация: 28.12.2009
Сообщений: 1901
Обитает:
Последний раз был:
17.06.2018 - 13:29




Цитата
( sharky @ 14.02.2018 - 16:34)
Спасибо.
Все в полном порядке.

sharky, Благодарю за сообщение!

Приятного просмотра!


--------------------
"Спартак" - ЧЕМПИОН!!!

Скрыть подпись
Top
gilbert00
  №4 Отправлено: 14.02.2018 - 18:58


Живёт здесь

Группа: Аксакалы
Регистрация: 1.06.2007
Сообщений: 1648
Обитает:
Последний раз был:
cегодня в 21:06




Жуткая "клюква"
Top
SanSan48
№5 Отправлено: 15.02.2018 - 08:00


"Спартак" - ЧЕМПИОН!!!

Группа: Пользователи
Регистрация: 28.12.2009
Сообщений: 1901
Обитает:
Последний раз был:
17.06.2018 - 13:29




Цитата
( gilbert00 @ 14.02.2018 - 18:58)
Жуткая "клюква"

А мы в такие "клюквенно-малиновые" времена жили. И что?

И "смайлики" тут не при чём. Иначе все фильмы СССР про шпионов можно отнести к этому новому "жанру".
Начиная от ... и кончая ...

А впрочем, все фильмы в те времена были "арбузно-ягодными". Сейчас, несомненно, гораздо лучше )))))))))))))))


--------------------
"Спартак" - ЧЕМПИОН!!!

Скрыть подпись
Top
gambetta26
№6 Отправлено: 15.02.2018 - 14:41


Гость

Группа: Потребители
Регистрация: 5.07.2016
Сообщений: 5
Обитает:
Последний раз был:
20.06.2018 - 06:49




Будьте добры, скиньте, пожалуйста, мне еще раз линк на Гайчи: я, случайно, нажал на СКАЧАЛ, до получения файлов загрузки!.. Заранее благодарен!
Top
SanSan48
№7 Отправлено: 15.02.2018 - 15:59


"Спартак" - ЧЕМПИОН!!!

Группа: Пользователи
Регистрация: 28.12.2009
Сообщений: 1901
Обитает:
Последний раз был:
17.06.2018 - 13:29




Цитата
( gambetta26 @ 15.02.2018 - 14:41)
Будьте добры, скиньте, пожалуйста, мне еще раз линк на Гайчи: я, случайно, нажал на СКАЧАЛ, до получения файлов загрузки!.. Заранее благодарен!

Вернул Вас в очередь, линк выслан автоматически.

Скачивайте!


--------------------
"Спартак" - ЧЕМПИОН!!!

Скрыть подпись
Top
cherkasy
№8 Отправлено: 15.02.2018 - 22:41


Старожил

Группа: Потребители
Регистрация: 30.12.2011
Сообщений: 541
Последний раз был:
позавчера в 12:48




спасибо
Top
gambetta26
№9 Отправлено: 16.02.2018 - 08:20


Гость

Группа: Потребители
Регистрация: 5.07.2016
Сообщений: 5
Обитает:
Последний раз был:
20.06.2018 - 06:49




Большое спасибо !
Top
1 человек просматривает эту тему (1 гость)
« Предыдущая тема | Отечественное кино | Следующая тема »


 



[Script Execution time: 0,0336]   [23 queries used]   [GZIP enabled]