Заходят многие - остаются лучшие!
Здравствуйте Гость ( Вход | Регистрация ) Выслать повторно письмо для активации
Вход
Ваше имя Пароль Забыли пароль?
Запомнить Вас?
Войти скрытым?



 Правила раздела Новые сообщения раздела  


 

 Дачная поездка сержанта Цыбули (1979), Комедия,военный;Реж.-Н.Литус,В.Шунько;Роли-С.Иванов,М.Кокшенов
SanSan48
  №1 Отправлено: 2.04.2017 - 13:42


"Спартак" - ЧЕМПИОН!!!

Группа: Пользователи
Регистрация: 28.12.2009
Сообщений: 1823
Обитает:
Последний раз был:
вчера в 20:17




Дачная поездка сержанта Цыбули (1979)



Предыдущие раздачи:
13.03.2016 (DVB-SATrip)
12.10.2007 (SATrip)
19.10.2007 (SATrip) (Архив)

Жанр: Комедия, военный
Выпущено: СССР, Киностудия им. А.Довженко
Год выпуска: 1979
Премьера (СССР): 22 декабря 1980
Сценаристы: Виталий Шунько, Павел Автомонов, при участии Николая Литуса
Оператор: Виктор Политов
Композитор: Иван Карабиц
Художники: Эдуард Шейкин, М.Терещенко, И.Жаркова
Монтажёр: Р.Лорман

Режиссёр: Николай Литус, Виталий Шунько

В ролях:
Сергей Иванов, Владимир Алексеенко, Михаил Кокшенов, Надежда Смирнова, Владимир Чубарев, Михаил Львов, Нина Реус, Степан Олексенко, Сергей Свечников, Маргарита Криницына, Борис Сабуров, Николай Литус, Евгений Мажуга, Полина Куманченко, Сергей Шеметило, Виктор Андриенко, Леонид Марченко, Юрий Мысенков, Геннадий Болотов, Георгий Дворников, Василий Фушич, Анатолий Помилуйко

Описание:
По мотивам повести Павла Автомонова «Автограф сержанта Цыбули».
Бойца-разведчика сержанта Цыбулю (Сергей Иванов) отправляют на «дачную поездку» — провести инструктаж в партизанском отряде. Но ночной прыжок из самолёта на парашюте оказался неудачным — «три костра в линию», служащие ориентиром, оказались кострами, на которых полицаи обрабатывали реквизированных у населения свиней… Цыбуля приземляется в логове противника… Но, перехитрив своих преследователей и захватив в плен немецкого майора, он все-таки прорывается к партизанам на вражеском бронепоезде, пройдя через множество приключений...

Дополнительная информация: Релиз:

Автор рипа: pmv

Большое спасибо за:
- запись HDTV 1080i TS с ТК «Первый HD» – ylnian

* В раздаче представлена широкоэкранная версия с реставрацией изображения от Первого канала.
* Изредка внизу экрана появляется изображение с названием фильма (см. на одном их скриншотов).

IMDb = 7,3/10 (46) - http://www.imdb.com/title/tt0079021/
Кинопоиск = 7.320 (1085) - https://www.kinopoisk.ru/film/44080/

ВНИМАНИЕ!!! РИП ФОРМАТА mkv (кодек H.264) ВОСПРОИЗВОДИТСЯ НЕ НА ВСЕХ БЫТОВЫХ ВИДЕОПЛЕЕРАХ!!!

Параметры файла:
Название: Дачная поездка сержанта Цыбули (1979).mkv
Качество видео: HDTVRip-AVC
Формат видео: MKV
Размер: 1,09 ГБ (1 175 969 697 bytes)
Продолжительность: 01:12:29
Видео: AVC (H264), 720@1354x576 (2.35:1), 25 fps, 1970 Kbps, 0.190 Bits/Pixel
Аудио: AC3, 48 KHz, stereo (2 ch), 192 Kbps



General
Unique ID : 241775980041224427455658183585739152405 (0xB5E45C279DC49D7EAB6DE095C8959C15)
Complete name : D:\torrents\Дачная поездка сержанта Цыбули (1979).mkv
Format : Matroska
Format version : Version 4 / Version 2
File size : 1.10 GiB
Duration : 1h 12mn
Overall bit rate : 2 163 Kbps
Encoded date : UTC 2017-03-21 17:56:15
Writing application : mkvmerge v9.9.0 ('Pick Up') 64bit
Writing library : libebml v1.3.4 + libmatroska v1.4.5
DURATION : 01:12:29.248000000
NUMBER_OF_FRAMES : 135914
NUMBER_OF_BYTES : 104381952
_STATISTICS_WRITING_APP : mkvmerge v9.9.0 ('Pick Up') 64bit
_STATISTICS_WRITING_DATE_UTC : 2017-03-21 17:56:15
_STATISTICS_TAGS : BPS DURATION NUMBER_OF_FRAMES NUMBER_OF_BYTES

Video
ID : 1
Format : AVC
Format/Info : Advanced Video Codec
Format profile : High@L4.1
Format settings, CABAC : Yes
Format settings, ReFrames : 16 frames
Codec ID : V_MPEG4/ISO/AVC
Duration : 1h 12mn
Bit rate : 1 970 Kbps
Width : 720 pixels
Height : 576 pixels
Display aspect ratio : 2.35:1
Original display aspect ratio : 5:4
Frame rate mode : Constant
Frame rate : 25.000 fps
Standard : PAL
Color space : YUV
Chroma subsampling : 4:2:0
Bit depth : 8 bits
Scan type : Progressive
Bits/(Pixel*Frame) : 0.190
Stream size : 1 000 MiB (89%)
Writing library : x264 core 146 r2538 121396c
Encoding settings : cabac=1 / ref=16 / deblock=1:0:0 / analyse=0x3:0x133 / me=umh / subme=10 / psy=1 / psy_rd=1.00:0.00 / mixed_ref=1 / me_range=24 / chroma_me=1 / trellis=2 / 8x8dct=1 / cqm=0 / deadzone=21,11 / fast_pskip=1 / chroma_qp_offset=-2 / threads=48 / lookahead_threads=4 / sliced_threads=0 / nr=0 / decimate=1 / interlaced=0 / bluray_compat=0 / constrained_intra=0 / bframes=8 / b_pyramid=2 / b_adapt=2 / b_bias=0 / direct=3 / weightb=1 / open_gop=0 / weightp=2 / keyint=250 / keyint_min=25 / scenecut=40 / intra_refresh=0 / rc_lookahead=60 / rc=2pass / mbtree=1 / bitrate=1970 / ratetol=1.0 / qcomp=0.60 / qpmin=0 / qpmax=69 / qpstep=4 / cplxblur=20.0 / qblur=0.5 / ip_ratio=1.40 / aq=1:1.00
Language : Russian
Default : Yes
Forced : No

Audio
ID : 2
Format : AC-3
Format/Info : Audio Coding 3
Mode extension : CM (complete main)
Format settings, Endianness : Big
Codec ID : A_AC3
Duration : 1h 12mn
Bit rate mode : Constant
Bit rate : 192 Kbps
Channel(s) : 2 channels
Channel positions : Front: L R
Sampling rate : 48.0 KHz
Bit depth : 16 bits
Compression mode : Lossy
Stream size : 99.5 MiB (9%)
Language : Russian
Default : Yes
Forced : No










МОИ РАЗДАЧИ НА ФЕНИКСе: ЗДЕСЬ




Это сообщение отредактировал SanSan48 - 2.04.2017 - 14:09


--------------------
"Спартак" - ЧЕМПИОН!!!

Скрыть подпись


apb1
№2 Отправлено: 2.04.2017 - 15:56


наша синема

Группа: Аксакалы
Регистрация: 6.03.2008
Сообщений: 2788
Обитает:
Последний раз был:
вчера в 22:24




SanSan48, pmv, скачалось-собралось без проблем. Спасибо!
Top
SanSan48
№3 Отправлено: 2.04.2017 - 17:35


"Спартак" - ЧЕМПИОН!!!

Группа: Пользователи
Регистрация: 28.12.2009
Сообщений: 1823
Обитает:
Последний раз был:
вчера в 20:17




Цитата
( apb1 @ 2.04.2017 - 15:56)
SanSan48, pmv, скачалось-собралось без проблем. Спасибо!

apb1, Благодарю за сообщение!


--------------------
"Спартак" - ЧЕМПИОН!!!

Скрыть подпись
Top
Viacheslav11
№4 Отправлено: 3.04.2017 - 09:46


Новичок

Группа: Потребители
Регистрация: 21.01.2009
Сообщений: 73
Обитает:
Последний раз был:
вчера в 10:17




Спасибо за хорошее качество, давно хотел посмотреть этот фильм
Top
cherkasy
№5 Отправлено: 3.04.2017 - 19:42


Завсегдатай

Группа: Потребители
Регистрация: 30.12.2011
Сообщений: 466
Последний раз был:
21.11.2017 - 13:22




спасибо
Top
1 человек просматривает эту тему (1 гость)
« Предыдущая тема | Отечественное кино | Следующая тема »


 



[Script Execution time: 0,0369]   [24 queries used]   [GZIP enabled]