Заходят многие - остаются лучшие!
Здравствуйте Гость ( Вход | Регистрация ) Выслать повторно письмо для активации
Вход
Ваше имя Пароль Забыли пароль?
Запомнить Вас?
Войти скрытым?



 Правила раздела Новые сообщения раздела  


 

 Самое лучшее / The Best of Everything (1959), мелодрама / в ролях Хоуп Лэнг, Стивен Бойд, Джоан Кроуфорд
surzhoks
  №1 Отправлено: 2.04.2017 - 17:04


Старожил

Группа: Аксакалы
Регистрация: 17.03.2008
Сообщений: 955
Обитает:
Последний раз был:
вчера в 11:08




Самое лучшее / The Best of Everything


Страна: США
Студия: 20th Century Fox Film Corporation, The Company of Artists
Жанр: драма, мелодрама
Год выпуска: 1959
Продолжительность: 02:01:21
Режиссер: Жан Негулеско / Jean Negulesco
Композитор: Альфред Ньюман / Alfred Newman
В ролях:
Хоуп Лэнг / Hope Lange ... Caroline Bender
Стивен Бойд / Stephen Boyd ... Mike Rice
Сьюзи Паркер / Suzy Parker ... Gregg Adams
Марта Хайер / Martha Hyer ... Barbara Lamont
Дайан Бэйкер / Diane Baker ... April Morrison
Брайан Ахерн / Brian Aherne ... Fred Shalimar
Роберт Эванс / Robert Evans ... Dexter Key
Луи Журдан / Louis Jourdan ... David Savage
Джоан Кроуфорд / Joan Crawford ... Amanda Farrow
Бретт Хэлси / Brett Halsey ... Eddie Harris
Дональд Херрон / Donald Harron ... Sidney Carter
Сью Карсон / Sue Carson ... Mary Agnes
Линда Хатчингс / Linda Hutchings ... Jane
Лайонел Кэйн / Lionel Kane ... Paul Landers
Тед Отис / Ted Otis ... Dr. Ronnie Wood

Описание: Жизнь женщины зависит от многих факторов, а её женское счастье - от великодушия мужчин. Одной успешной карьеры явно недостаточно, для того чтобы почувствовать всю полноту жизни. Благополучная издательская деятельность Аманды Фэрроу сочетается с неудачной связью с женатым мужчиной. У её коллеги Барбары Ламонт тоже роман с чужим мужем. А секретаршу их фирмы Грегг Адамс бросил театральный продюсер Дэвид Сэвэдж ради новой любовницы. Подобных историй немало в среде работающих женщин...
По мотивам романа Роны Джаффе.

- Это произошло в первый раз, когда Джоан Кроуфорд согласилась на второстепенную роль. Предположительно потому, что она оказалась в долгах после смерти мужа Альфреда Стила в начале 1959 года.
- Сцена, где Аманда (Джоан Кроуфорд) отвечает на телефонный звонок от своего любовника, который отменяет их свидание, была сочинена самой Кроуфорд. Актриса получила диалоги своего персонажа за день до съемок, но они ей не понравились. Поэтому Джоан Кроуфорд намекнула продюсеру Джерри Уолду, что она могла бы сама всё переписать. Она сделала это с разрешения сценариста Эдит Р. Соммер, которая была в восторге от нового диалога.


Оскар, 1960 год
Номинации (2):
- Лучшая работа художника по костюмам (цветные фильмы)
- Лучшая песня — «The Best of Everything»


Доп. информация:
Огромное спасибо всем причастным к релизу:
рип - Магда,
перевод и озвучивание фильма - Дмитрий Есарев,
работа со звуком и реавторинг исходного DVD- AlekceyR76,
финансовая поддержка перевода и озвучивания фильма:
Магда, Lafajet, jasenka, елена 22, yanaelisa, old76, surzhoks, voostorg, Ugo927, HippopotamusIV, sapog1960, борюська, duum100, mumzik69, spartakeynoir, Patsy+


Архивы созданы RAR-архиватором с добавлением 3% на восстановление и снабжены sfv-проверочником.
Есть зеркало на mediafire.

Просьба к первому скачавшему отписаться о сохранности архивов на источнике раздачи.

Раздача рассчитана на 2 месяца. На просмотр линка и скачивание 5 дней!
В случае если вы встали в очередь, а затем отказываетесь от скачивания без объяснения причин, возможен отказ в последующих моих раздачах.



Полное имя :The Best of Everything.1959.DVDRip.avi
Формат : AVI
Формат/Информация : Audio Video Interleave
Размер файла : 1,84 Гбайт
Продолжительность : 2 ч. 1 м.
Общий поток : 2172 Кбит/сек
Программа кодирования : VirtualDubMod 1.5.4.1 (build 2178/release)
Библиотека кодирования : VirtualDubMod build 2178/release

Видео
Идентификатор : 0
Формат : MPEG-4 Visual
Профиль формата : Advanced Simple@L5
Параметр BVOP формата : 2
Параметр QPel формата : Нет
Параметр GMC формата : Без точки перехода
Параметр матрицы формата : Default (H.263)
Идентификатор кодека : DX50
Идентификатор кодека/Подсказка : DivX 5
Продолжительность : 2 ч. 1 м.
Битрейт : 1518 Кбит/сек
Ширина : 704 пикселя
Высота : 304 пикселя
Соотношение сторон : 2,35:1
Частота кадров : 23,976 кадра/сек
Цветовое пространство : YUV
Субдискретизация насыщенности : 4:2:0
Битовая глубина : 8 бит
Тип развёртки : Прогрессивная
Метод сжатия : С потерями
Бит/(Пиксели*Кадры) : 0.296
Размер потока : 1,29 Гбайт (70%)
Библиотека кодирования : XviD 73

Аудио #1
Идентификатор : 1
Формат : AC-3
Формат/Информация : Audio Coding 3
Расширение режима : CM (complete main)
Параметр Endianness формата : Big
Идентификатор кодека : 2000
Продолжительность : 2 ч. 1 м.
Вид битрейта : Постоянный
Битрейт : 192 Кбит/сек
Каналы : 2 канала
Расположение каналов : Front: L R
Частота : 48,0 КГц
Битовая глубина : 16 бит
Метод сжатия : С потерями
Размер потока : 167 Мбайт (9%)
Выравнивание : Разделение по промежуткам
Продолжительность промежутка : 42 мс. (1,00 видеокадр)
Время предзагрузки промежутка : 500 мс.

Аудио #2
Идентификатор : 2
Формат : AC-3
Формат/Информация : Audio Coding 3
Расширение режима : CM (complete main)
Параметр Endianness формата : Big
Идентификатор кодека : 2000
Продолжительность : 2 ч. 1 м.
Вид битрейта : Постоянный
Битрейт : 448 Кбит/сек
Каналы : 4 канала
Расположение каналов : Front: L C R, Back: C
Частота : 48,0 КГц
Битовая глубина : 16 бит
Метод сжатия : С потерями
Размер потока : 389 Мбайт (21%)
Выравнивание : Разделение по промежуткам
Продолжительность промежутка : 42 мс. (1,00 видеокадр)
Время предзагрузки промежутка : 500 мс.




--------------------
Искусство откладывать деньги сводится к умению сказать “нет” потребительскому обществу.

Скрыть подпись


vjub58
№2 Отправлено: 2.04.2017 - 20:19


Практикующий эсквайр

Группа: Аксакалы
Регистрация: 6.12.2005
Сообщений: 4536
Обитает:
Последний раз был:
cегодня в 00:09




Спасибо, все ОК. (mail.ru) pozdrav_buket.gif
Top
A.S.R.
№3 Отправлено: 17.05.2017 - 18:14


Завсегдатай

Группа: Потребители
Регистрация: 31.08.2007
Сообщений: 306
Обитает:
Последний раз был:
12.07.2017 - 19:34




На Mediafire ссылки ещё работают! Спасибо - и извините за задержку.


Это сообщение отредактировал A.S.R. - 17.05.2017 - 18:15
Top
медикус
№4 Отправлено: 18.05.2017 - 10:49


Живёт здесь

Группа: Модераторы
Регистрация: 22.07.2008
Сообщений: 9074
Обитает:
Последний раз был:
вчера в 22:22




Спасибо, на медиафаре порядок, на мейле - ссылки нерабочие, 404...


--------------------
"Тихо шифером шурша,
Крыша едет не спеша..."
Не помню, кто написал, но дома с этим согласны yes.gif

ПРОЕКТ: В музей - без поводка

Скрыть подпись
Top
1 человек просматривает эту тему (1 гость)
« Предыдущая тема | Зарубежные фильмы | Следующая тема »


 



[Script Execution time: 0,0220]   [23 queries used]   [GZIP enabled]