Заходят многие - остаются лучшие!
Здравствуйте Гость ( Вход | Регистрация ) Выслать повторно письмо для активации
Вход
Ваше имя Пароль Забыли пароль?
Запомнить Вас?
Войти скрытым?



 Правила раздела Новые сообщения раздела  


 

 Матрос сошёл на берег (1957), Старое советское кино
bornik
  №1 Отправлено: 31.07.2016 - 16:05


Воспоминания - это богатства старости.

Группа: Модераторы
Регистрация: 18.08.2008
Сообщений: 966
Обитает:
Последний раз был:
cегодня в 19:19




Матрос сошёл на берег



Предыдущая раздача 16.03.2008 г.
Предыдущая раздача 17.04.2012 г.
Предыдущая раздача 12.09.2015 г.

«Матрос сошёл на берег» - советский чёрно-белый художественный фильм режиссёров Григория Аронова и Льва Данилова, поставленный в 1957 году.

Год выпуска: 1957
Жанр: Драма
Выпущено: СССР, Одесская киностудия

Режиссёры: Григорий (Гелий) Аронов, Лев Данилов

В ролях:
Иван Дмитриев … Алексей Ермоленко
Алефтина Константинова … Таня
Алексей Бахарь … Иван Васильевич Субботин, диспетчер порта
Степан Крылов … Коробов, бригадир
Владимир Гуляев … Саня Корочкин
Александр Антонов … Викентий Семёнович Антонов, начальник порта
Лилия Гурова … Клава, подруга Тани
Л. Васина … Зина, подруга Тани
Артур Нищёнкин … Сёмин
Георгий Домбровский … Кисель
Вова Гасаненко … Вова Ермоленко, сын
Саша Меньщиков … Саша Ермоленко, сынишка
Николай Волков (старший) … главврач
Т. Горпенко … эпизод
Игорь Иванов (VI) … эпизод
Мелания Киселева … эпизод
Иван Колесниченко … рабочий
В. Лобко … эпизод
Александра Магницкая … тётя Маша
Евгений Котов (II) … ведущий собрания (нет в титрах)
Иван Полетаев … докер (нет в титрах)
Пётр Омельченко … участник собрания (нет в титрах)
Юрий Лысенко … Дидуха (нет в титрах)
Эмилия Бауман … эпизод (нет в титрах)

Сценарист: Никодим Гиппиус
Операторы: Г. Никулин, Василий Симбирцев
Композитор: Герман Жуковский
Художник: Леонид Курлянд

Описание: Матрос Алексей устраивается работать грузчиком в порт, чтобы не оставлять надолго двоих малолетних сыновей, растущих без матери. В порту он знакомится с девушкой Таней. Возникшему чувству предстоит нелегкое испытание.













=================================

Исходником послужил релиз DVB от Cheef mate (запись потока *.ts со спутника Экспресс АМ7, 40° в.д., ремукс в *.mpg , удаление рекламы программой VideoReDo),
взятый с Рутрекера, за что ему БОЛЬШОЕ СПАСИБО!



Рип был сделан медикус по моей просьбе, за что ей ОГРОМНОЕ СПАСИБО!

Архивы созданы RAR-архиватором с добавлением 3% на восстановление и снабжены sfv-проверочником.
Просьба к первому скачавшему отписаться о сохранности архивов на источнике раздачи.

Раздача рассчитана на месяц.

ПРИЯТНОГО ВСЕМ ПРОСМОТРА !!!



General
Complete name : C:\Cinema\Матрос сошёл на берег (1957) TVRip.avi
Format : AVI
Format/Info : Audio Video Interleave
File size : 1.09 GiB
Duration : 1h 9mn
Overall bit rate : 2 260 Kbps
Writing library : VirtualDub build 32842/release

Video
ID : 0
Format : MPEG-4 Visual
Format profile : Advanced Simple@L5
Format settings, BVOP : 1
Format settings, QPel : No
Format settings, GMC : No warppoints
Format settings, Matrix : Default (MPEG)
Codec ID : XVID
Codec ID/Hint : XviD
Duration : 1h 9mn
Bit rate : 1 994 Kbps
Width : 720 pixels
Height : 544 pixels
Display aspect ratio : 4:3
Frame rate : 25.000 fps
Color space : YUV
Chroma subsampling : 4:2:0
Bit depth : 8 bits
Scan type : Progressive
Compression mode : Lossy
Bits/(Pixel*Frame) : 0.204
Stream size : 985 MiB (88%)
Writing library : XviD 64

Audio
ID : 1
Format : MPEG Audio
Format version : Version 1
Format profile : Layer 3
Mode : Joint stereo
Mode extension : MS Stereo
Codec ID : 55
Codec ID/Hint : MP3
Duration : 1h 9mn
Bit rate mode : Constant
Bit rate : 256 Kbps
Channel(s) : 2 channels
Sampling rate : 48.0 KHz
Compression mode : Lossy
Stream size : 126 MiB (11%)
Alignment : Split accross interleaves
Interleave, duration : 40 ms (1.00 video frame)
Interleave, preload duration : 500 ms
Writing library : LAME3.97



Другое участие: Chiefmate – предоставление исходной записи




--------------------
Безоблачная старость – это миф,
Поскольку наша память – ширь морская,
И к ночи начинается прилив,
Со дна обломки прошлого таская.
Игорь Губерман

Скрыть подпись


baziss
№2 Отправлено: 31.07.2016 - 17:13


Аксакал обыкновенный

Группа: Аксакалы
Регистрация: 4.12.2005
Сообщений: 2475
Обитает:
Последний раз был:
cегодня в 18:45




Спасибо большое! Архив в порядке.


--------------------

Скрыть подпись
Top
медикус
№3 Отправлено: 31.07.2016 - 23:45


Живёт здесь

Группа: Модераторы
Регистрация: 22.07.2008
Сообщений: 9231
Обитает:
Последний раз был:
cегодня в 22:48




baziss, спасибо!


--------------------
"Тихо шифером шурша,
Крыша едет не спеша..."
Не помню, кто написал, но дома с этим согласны yes.gif

ПРОЕКТ: В музей - без поводка

Скрыть подпись
Top
bornik
№4 Отправлено: 24.09.2016 - 04:11


Воспоминания - это богатства старости.

Группа: Модераторы
Регистрация: 18.08.2008
Сообщений: 966
Обитает:
Последний раз был:
cегодня в 19:19




Всем спасибо.
Очередь закрыта. Если есть желающие - пишите в ПМ. wink2.gif


--------------------
Безоблачная старость – это миф,
Поскольку наша память – ширь морская,
И к ночи начинается прилив,
Со дна обломки прошлого таская.
Игорь Губерман

Скрыть подпись
Top
1 человек просматривает эту тему (1 гость)
« Предыдущая тема | Отечественное кино | Следующая тема »


 



[Script Execution time: 0,0357]   [23 queries used]   [GZIP enabled]