Заходят многие - остаются лучшие!
Здравствуйте Гость ( Вход | Регистрация ) Выслать повторно письмо для активации
Вход
Ваше имя Пароль Забыли пароль?
Запомнить Вас?
Войти скрытым?



 Правила раздела Новые сообщения раздела  


 

 Тореадоры из Васюковки / Тореадори з Васюківки (1965), Детский,комедия;Реж.-С.Зеликин,В.Осипянц;Роли-А.Бартенев,А.Минин
SanSan48
  №1 Отправлено: 4.08.2016 - 14:24


"Спартак" - ЧЕМПИОН!!!

Группа: Пользователи
Регистрация: 28.12.2009
Сообщений: 1823
Обитает:
Последний раз был:
cегодня в 19:14




Тореадоры из Васюковки / Тореадори з Васюківки (1965)



Предыдущие раздачи:
05.06.2012 (TVRip)
28.05.2009 (TVRip)

Жанр: Детский, комедия, короткометражный
Выпущено: СССР, Харьковская телестудия
Год выпуска: 1965
Сценарист: Н.Рудова
Оператор: А.Орлов
Композитор: Дмитрий Клебанов

Режиссёры: Самарий Зеликин, Валентина Осипянц

В ролях:
Александр Бартенев ... Ява (Иван) Рень
Саша Минин ... Павлуша (Павло) Криворотько
Алексей Свистунов ... дед (в титрах - О.Свистунов)
Е. Пустовойт ... отдыхающий
Коля Ушаков ... кроликовод по кличке «Сало»

Описание: По книге (по одному из её эпизодов) Всеволода Нестайко.
Короткометражный фильм о веселых приключениях двух украинских шкодников, неразлучных друзей Явы (Ивана) Реня и Павлуши (Павло) Криворотько (в книге Завгороднего), которые и дня не могут прожить без приключений.
Желая прославиться и утереть нос «единоличнику» Салу, который прославился разведением кроликов, двое деревенских мальчишек выбирают карьеру тореадоров. Однако на этом пути их ждут нелегкие испытания: украинский скот терпеливый и добродушный, но имеет собственное достоинство…

Дополнительная информация:
Релиз:

Автор рипа: pmv

Исходник найден в сети.

Большое спасибо за:
- русские субтитры, перевод - kalancha, редакция - Карполя

* В данной раздаче, продолжительностью 00:30:25, присутствует эпизод, которого не было в предыдущих раздачах на ФЕНИКСе, где продолжительность фильма - 00:29:03

Кинопоиск = 7.488 (72) - https://www.kinopoisk.ru/film/432381/

Параметры файла:
Название файла: Тореадоры из Васюковки (1965, укр).avi
Качество видео: WEBRip
Формат видео: AVI
Размер: 330.94 Mb ( 347 014 704 bytes )
Продолжительность: 00:30:25.319 (45633 frames)
Перевод: русские субтитры - kalancha, редакция - Карполя
Формат субтитров: SubRip (SRT)
Оригинальная аудиодорожка: украинский
Видео: 592x480 (1.23:1), 25 fps, XviD build 73 ~1383 kbps avg, 0.19 bit/pixel
Аудио: 44.100 kHz, MPEG Layer 3, stereo (2 ch), ~128.00 kbps avg



General
Complete name : D:\torrents\Тореадоры из Васюковки (1965, укр).avi
Format : AVI
Format/Info : Audio Video Interleave
File size : 331 MiB
Duration : 30mn 25s
Overall bit rate : 1 521 Kbps
Writing library : VirtualDub build 35576/release

Video
ID : 0
Format : MPEG-4 Visual
Format profile : Advanced Simple@L5
Format settings, BVOP : 2
Format settings, QPel : No
Format settings, GMC : No warppoints
Format settings, Matrix : Default (H.263)
Codec ID : XVID
Codec ID/Hint : XviD
Duration : 30mn 25s
Bit rate : 1 383 Kbps
Width : 592 pixels
Height : 480 pixels
Display aspect ratio : 5:4
Frame rate : 25.000 fps
Color space : YUV
Chroma subsampling : 4:2:0
Bit depth : 8 bits
Scan type : Progressive
Compression mode : Lossy
Bits/(Pixel*Frame) : 0.195
Stream size : 301 MiB (91%)
Writing library : XviD 73

Audio
ID : 1
Format : MPEG Audio
Format version : Version 1
Format profile : Layer 3
Mode : Joint stereo
Mode extension : MS Stereo
Codec ID : 55
Codec ID/Hint : MP3
Duration : 30mn 25s
Bit rate mode : Constant
Bit rate : 128 Kbps
Channel(s) : 2 channels
Sampling rate : 44.1 KHz
Compression mode : Lossy
Stream size : 27.9 MiB (8%)
Alignment : Split accross interleaves
Interleave, duration : 40 ms (1.00 video frame)
Interleave, preload duration : 500 ms








МОИ РАЗДАЧИ НА ФЕНИКСе: ЗДЕСЬ
Перезаливает для архива: медикус




--------------------
"Спартак" - ЧЕМПИОН!!!

Скрыть подпись


Nadejdaenergia
№2 Отправлено: 4.08.2016 - 14:48


Когда всё плохое уходит, остаётся только хорошее.

Группа: Модераторы
Регистрация: 21.03.2012
Сообщений: 5570
Обитает:
Последний раз был:
cегодня в 17:38




Скачалось-распаковалось без проблем. Воспроизводится нормально, субтитры читаются как положено.
Top
SanSan48
№3 Отправлено: 4.08.2016 - 15:11


"Спартак" - ЧЕМПИОН!!!

Группа: Пользователи
Регистрация: 28.12.2009
Сообщений: 1823
Обитает:
Последний раз был:
cегодня в 19:14




Цитата
( Nadejdaenergia @ 4.08.2016 - 14:48)
Скачалось-распаковалось без проблем. Воспроизводится нормально, субтитры читаются как положено.

Благодарю за хорошую подробную информацию!

Приятного просмотра!


--------------------
"Спартак" - ЧЕМПИОН!!!

Скрыть подпись
Top
медикус
№4 Отправлено: 4.08.2016 - 19:14


Живёт здесь

Группа: Модераторы
Регистрация: 22.07.2008
Сообщений: 9231
Обитает:
На форуме с:
cегодня в 22:48




А книгу можно скачать с http://royallib.com/book/nestayko_vsevolod...vasyukovki.html
http://royallib.com/get/fb2/nestayko_vsevo..._vasyukovki.zip - FB2 (Размер: 145 Кб, русский язык). Есть и другие форматы.


--------------------
"Тихо шифером шурша,
Крыша едет не спеша..."
Не помню, кто написал, но дома с этим согласны yes.gif

ПРОЕКТ: В музей - без поводка

Скрыть подпись
Top
1 человек просматривает эту тему (1 гость)
« Предыдущая тема | Отечественное кино | Следующая тема »


 



[Script Execution time: 0,0360]   [25 queries used]   [GZIP enabled]