Заходят многие - остаются лучшие!
Здравствуйте Гость ( Вход | Регистрация ) Выслать повторно письмо для активации
Вход
Ваше имя Пароль Забыли пароль?
Запомнить Вас?
Войти скрытым?



 Правила раздела Новые сообщения раздела  


 

 Сын (1956), Старое советское кино
bornik
  №1 Отправлено: 11.08.2016 - 03:19


Воспоминания - это богатства старости.

Группа: Модераторы
Регистрация: 18.08.2008
Сообщений: 937
Обитает:
Последний раз был:
cегодня в 03:13




Сын



В рамках проекта

Предыдущая раздача 05.09.2007 г.
Предыдущая раздача 07.05.2011 г.
Предыдущая раздача 23.12.2014 г.

«Сын» - советский чёрно-белый художественный фильм режиссёра Юрия Озерова, поставленный в 1956 году.

Год выпуска: 1956
Жанр: Молодёжный фильм, социальная драма
Выпущено: СССР, Мосфильм
Премьера (СССР): 20 февраля 1956 года

Режиссёр: Юрий Озеров

В ролях:
Леонид Харитонов … Андрей Горяев, десятиклассник
Пётр Константинов … Иван Степанович Горяев, отец Андрея
Варвара Каргашёва … Варвара Петровна, мать Андрея
Виктор Гераскин … Вася Козлов
Надежда Румянцева … Тамара, профорг 21 участка на стройке
Константин Сорокин … Панечкин, бригадир-жулик
Алексей Грибов … Сергей Иванович Кондратьев, администратор цирка
Владимир Белокуров … Лавров, воздушный акробат
Роза Макагонова … Шурочка Сокольская, цирковая акробатка
Александр Михайлов (II) … Володя, шофёр циркового автобуса
Вера Карпова … Сергеева, школьница
Сергей Калинин … дядя Федя
Павел Винник … Шибыкин, водитель грузовика
Клеон Протасов … милиционер
Алексей Кельберер … классный руководитель 10 класса
Ада Войцик … Екатерина Сергеевна Козлова, мать Василия
Павел Шальнов … Ложечкин
Владимир Земляникин … Лёша Старостин, молодой рабочий
Константин Барташевич … Александр Александрович, директор школы
Алексей Бахарь … рабочий (нет в титрах)
Валентин Брылеев … участковый (нет в титрах)
Александр Гречаный … милиционер, в отделении милиции (нет в титрах)
Нина Дорошина … продавщица в кондитерском отделе (нет в титрах)
Юрий Белов … конвойный милиционер (нет в титрах)
Евгений Кудряшёв … прохожий (нет в титрах)
Владимир Кулик … одноклассник Андрея (нет в титрах)
Лев Лобов … старшина (нет в титрах)
Светлана Харитонова … работница с лопатой (нет в титрах)
Иван Бондарь … строитель (нет в титрах)

ОЗВУЧИВАНИЕ

Сергей Бондарчук - закадровый текст

ВОКАЛ

Надежда Румянцева - песня "Берёзка" (Ю.Левитин - М.Матусовский)

Сценарист: Татьяна Сытина
Оператор: Игорь Слабневич
Композитор: Юрий Левитин
Художник: Стален Волков

Описание: Девятикласснику Андрею Горяеву, совершившему хулиганский поступок, грозит уголовная ответственность. Но благодаря сердобольности свидетельницы, героя отпускают. После ссоры с отцом парень уходит из дома и скитается по Москве до тех пор, пока случай не приводит его на стройку.


• Банеры с названием фильма, после рекламных вставок и анонсом следующих передач в раздаче присутствуют.



• 1955 - Диплом Венецианского кинофестиваля


Лидер проката (1956г, 11 место) - 28.72 млн. зрителей.








=================================

Исходником послужил релиз TVRip от трус'а, взятый с Рутрекера, за что ему БОЛЬШОЕ СПАСИБО!



Архивы созданы RAR-архиватором с добавлением 3% на восстановление и снабжены sfv-проверочником.
Просьба к первому скачавшему отписаться о сохранности архивов на источнике раздачи.

Раздача рассчитана на месяц.

ПРИЯТНОГО ВСЕМ ПРОСМОТРА !!!



General
Complete name : C:\Cinema\Сын (1956) TVRip.avi
Format : AVI
Format/Info : Audio Video Interleave
File size : 1.44 GiB
Duration : 1h 26mn
Overall bit rate : 2 397 Kbps
Writing library : VirtualDub build 35491/release

Video
ID : 0
Format : MPEG-4 Visual
Format profile : Advanced Simple@L5
Format settings, BVOP : 2
Format settings, QPel : No
Format settings, GMC : No warppoints
Format settings, Matrix : Default (H.263)
Muxing mode : Packed bitstream
Codec ID : XVID
Codec ID/Hint : XviD
Duration : 1h 26mn
Bit rate : 2 003 Kbps
Width : 720 pixels
Height : 544 pixels
Display aspect ratio : 4:3
Frame rate : 25.000 fps
Color space : YUV
Chroma subsampling : 4:2:0
Bit depth : 8 bits
Scan type : Progressive
Compression mode : Lossy
Bits/(Pixel*Frame) : 0.205
Stream size : 1.21 GiB (84%)
Writing library : XviD 73

Audio
ID : 1
Format : AC-3
Format/Info : Audio Coding 3
Mode extension : CM (complete main)
Format settings, Endianness : Big
Codec ID : 2000
Duration : 1h 26mn
Bit rate mode : Constant
Bit rate : 384 Kbps
Channel(s) : 2 channels
Channel positions : Front: L R
Sampling rate : 48.0 KHz
Bit depth : 16 bits
Compression mode : Lossy
Stream size : 237 MiB (16%)
Alignment : Aligned on interleaves
Interleave, duration : 40 ms (1.00 video frame)
Interleave, preload duratio : 512 ms



Другое участие: трус – предоставление исходной записи




--------------------
Безоблачная старость – это миф,
Поскольку наша память – ширь морская,
И к ночи начинается прилив,
Со дна обломки прошлого таская.
Игорь Губерман

Скрыть подпись


Fedya77
№2 Отправлено: 11.08.2016 - 06:42


Посетитель

Группа: Потребители
Регистрация: 25.10.2007
Сообщений: 136
Обитает:
Последний раз был:
вчера в 20:16




Всё с качалось и распаковалось. DD.gif
Top
bornik
№3 Отправлено: 12.08.2016 - 03:46


Воспоминания - это богатства старости.

Группа: Модераторы
Регистрация: 18.08.2008
Сообщений: 937
Обитает:
Последний раз был:
cегодня в 03:13




Цитата
( Fedya77 @ 11.08.2016 - 06:42)
Всё с качалось и распаковалось. DD.gif

И Вам, Fedya77, спасибо за добрую весть. happy_fly.gif


--------------------
Безоблачная старость – это миф,
Поскольку наша память – ширь морская,
И к ночи начинается прилив,
Со дна обломки прошлого таская.
Игорь Губерман

Скрыть подпись
Top
bornik
№4 Отправлено: 24.09.2016 - 04:14


Воспоминания - это богатства старости.

Группа: Модераторы
Регистрация: 18.08.2008
Сообщений: 937
Обитает:
Последний раз был:
cегодня в 03:13




Всем спасибо.
Очередь закрыта. Если есть желающие - пишите в ПМ. wink2.gif


--------------------
Безоблачная старость – это миф,
Поскольку наша память – ширь морская,
И к ночи начинается прилив,
Со дна обломки прошлого таская.
Игорь Губерман

Скрыть подпись
Top
1 человек просматривает эту тему (1 гость)
« Предыдущая тема | Отечественное кино | Следующая тема »


 



[Script Execution time: 0,0367]   [23 queries used]   [GZIP enabled]