Заходят многие - остаются лучшие!
Здравствуйте Гость ( Вход | Регистрация ) Выслать повторно письмо для активации
Вход
Ваше имя Пароль Забыли пароль?
Запомнить Вас?
Войти скрытым?



 Правила раздела Новые сообщения раздела  


 

 Человек в проходном дворе [4 серии] (1971), Старое советское кино, экранизация
bornik
  №1 Отправлено: 15.08.2016 - 17:23


Воспоминания - это богатства старости.

Группа: Модераторы
Регистрация: 18.08.2008
Сообщений: 937
Обитает:
Последний раз был:
cегодня в 03:13




Человек в проходном дворе [4 серии]



Предыдущая раздача 26.01.2009 г.
Предыдущая раздача 24.02.2015 г.

«Человек в проходном дворе» — советский четырёхсерийный художественный фильм, снятый в 1971 году режиссёром Марком Орловым.
Детективный фильм, в основе которого лежит детективная повесть Дмитрия Тарасенкова «Человек в проходном дворе».

Год выпуска: 1971
Жанр: Детектив, экранизация
Выпущено: СССР, Киностудия им. А.Довженко, Творческое объединение телефильмов
Продолжительность: 04:09:27 (01:02:07 + 01:02:14 + 01:02:14 + 01:02:52)
Премьера: 15 мая 1972 года (ТВ)

Режиссёр: Марк Орлов

В ролях:
Геннадий Корольков … старший лейтенант Борис Вараксин, сотрудник КГБ
Иван Переверзев … Иван Фёдорович Войтин, "Боцман"
Харийс Лиепиньш … Отто Янович Пухальский
Виктор Чекмарёв … Генрих Осипович Буш
Антс Эскола … Мартин Мягер
Ирина Скобцева … Клавдия Николаевна Юшкова
Вера Саранова … Рая Познанская, портье в гостинице
Вацлав Дворжецкий … Кыргемаа, начальник местного КГБ
Николай Ерёменко (ст.) … капитан милиции Сибул
Олга Круминя … Дина Лаанеметс, бывшая подпольщица
Николай Лебедев (II) … Владимир Пантелеймонович Попов, водитель рейсового автобуса
Эве Киви … Кристина, сотрудник КГБ
Айно Пихламяги … горничная в гостиннице
С. Гоголев … эпизод
Н. Озолиня … продавец табачного ларька
Лев Перфилов … сотрудник КГБ
Ф. Ратас … директор гостиницы
Л. Молчанов … парень со свинчаткой из компании Сёмы
Арнольд Сиккель … старик с удочкой, сосед Дины Лаанеметс
С. Стаценко … Сёма, ухажёр Раи
Ирина Стерлядкина … Ирина, секретарь-машинистка Мартина Мягера
Александр Таза … Сергей, племянник Мартина Мягера, из компании Сёмы
Борис Трошкин … Рейно, мужчина в чёрных очках, знакомый Пухальского
Борис Чипурин … певец в ресторане
Николай Невердинов … мальчик в рейсовом автобусе, уступивший место Войтину
Э. Симсон … диспетчер автобусного парка
Т. Чернобаева … эпизод
М. Шатохин … шофёр панелевоза
К. Силм … эпизод
А. Рейнхольд … эпизод
Юлле Тооминг (в титрах У.Тооминг) … дочь Дины Лаанеметс
В. Тооминг … зять Дины Лаанеметс

ВОКАЛ

Борис Чипурин … певец ресторана «Эндла» исполняет песню "Сосны"

Сценарист: Дмитрий Тарасенков
Оператор: Владимир Давыдов (III)
Композитор: Людгардас Гедравичюс
Художник: Виктор Мигулько




Описание: В небольшом прибалтийском городке произошло убийство. Жертва — бывший партизан Григорий Михайлович Юшков, его ударили по голове кастетом в проходном дворе. В ходе предварительного следствия выясняется, что убийство связано с событиями более чем двадцатилетней давности — гибелью партизанского отряда и подпольщиков в 1944 году, выданных провокатором по кличке «Кентавр», а посему расследование оказывается в компетенции КГБ. Для выяснения всех обстоятельств случившегося КГБ посылает молодого сотрудника, старшего лейтенанта Бориса Вараксина. Вараксин только что прибыл к месту службы, и в городе его пока никто не знает. Выдавая себя за студента, приехавшего подработать матросом рыболовного судна, Вараксин поселяется в тот самый гостиничный номер, где проживал погибший. Вараксин знакомится с людьми, так или иначе связанных с Юшковым, и, не раскрывая себя проверяет их причастность к убийству. Отработав несколько ложных версий, Вараксин разоблачает провокатора, который после войны остался жить в этих краях, работал водителем пригородного автобуса и был на автостанции опознан Юшковым, приехавшим сюда на отдых. «Кентавра» берут с поличным, когда в том же проходном дворе он пытается разделаться со свидетелем. Попутно Вараксин изобличает шайку расхитителей и спекулянтов.









General
Complete name : C:\Cinema\ChelVProkhDvor\Человек в проходном дворе 1 (1971) TVRip.avi
Format : AVI
Format/Info : Audio Video Interleave
File size : 1.04 GiB
Duration : 1h 2mn
Overall bit rate : 2 404 Kbps
Writing application : VirtualDubMod 1.5.10.2 (build 2542/release)
Writing library : VirtualDubMod build 2542/release

Video
ID : 0
Format : MPEG-4 Visual
Format profile : Advanced Simple@L5
Format settings, BVOP : 2
Format settings, QPel : No
Format settings, GMC : No warppoints
Format settings, Matrix : Default (H.263)
Muxing mode : Packed bitstream
Codec ID : XVID
Codec ID/Hint : XviD
Duration : 1h 2mn
Bit rate : 2 202 Kbps
Width : 720 pixels
Height : 544 pixels
Display aspect ratio : 4:3
Frame rate : 25.000 fps
Color space : YUV
Chroma subsampling : 4:2:0
Bit depth : 8 bits
Scan type : Progressive
Compression mode : Lossy
Bits/(Pixel*Frame) : 0.225
Stream size : 979 MiB (92%)
Writing library : XviD 65

Audio
ID : 1
Format : AC-3
Format/Info : Audio Coding 3
Mode extension : CM (complete main)
Codec ID : 2000
Duration : 1h 2mn
Bit rate mode : Constant
Bit rate : 192 Kbps
Channel(s) : 2 channels
Channel positions : Front: L R
Sampling rate : 48.0 KHz
Bit depth : 16 bits
Compression mode : Lossy
Stream size : 85.3 MiB (8%)
Alignment : Split accross interleaves
Interleave, duration : 40 ms (1.00 video frame)
Interleave, preload duration : 500 ms

=================================









General
Complete name : C:\Cinema\ChelVProkhDvor\Человек в проходном дворе 2 (1971) TVRip.avi
Format : AVI
Format/Info : Audio Video Interleave
File size : 1.05 GiB
Duration : 1h 2mn
Overall bit rate : 2 405 Kbps
Writing application : VirtualDubMod 1.5.10.2 (build 2542/release)
Writing library : VirtualDubMod build 2542/release

Video
ID : 0
Format : MPEG-4 Visual
Format profile : Advanced Simple@L5
Format settings, BVOP : 2
Format settings, QPel : No
Format settings, GMC : No warppoints
Format settings, Matrix : Default (H.263)
Muxing mode : Packed bitstream
Codec ID : XVID
Codec ID/Hint : XviD
Duration : 1h 2mn
Bit rate : 2 203 Kbps
Width : 720 pixels
Height : 544 pixels
Display aspect ratio : 4:3
Frame rate : 25.000 fps
Color space : YUV
Chroma subsampling : 4:2:0
Bit depth : 8 bits
Scan type : Progressive
Compression mode : Lossy
Bits/(Pixel*Frame) : 0.225
Stream size : 981 MiB (92%)
Writing library : XviD 65

Audio
ID : 1
Format : AC-3
Format/Info : Audio Coding 3
Mode extension : CM (complete main)
Codec ID : 2000
Duration : 1h 2mn
Bit rate mode : Constant
Bit rate : 192 Kbps
Channel(s) : 2 channels
Channel positions : Front: L R
Sampling rate : 48.0 KHz
Bit depth : 16 bits
Compression mode : Lossy
Stream size : 85.5 MiB (8%)
Alignment : Split accross interleaves
Interleave, duration : 40 ms (1.00 video frame)
Interleave, preload duration : 500 ms

=================================









General
Complete name : C:\Cinema\ChelVProkhDvor\Человек в проходном дворе 3 (1971) TVRip.avi
Format : AVI
Format/Info : Audio Video Interleave
File size : 1.05 GiB
Duration : 1h 2mn
Overall bit rate : 2 404 Kbps
Writing application : VirtualDubMod 1.5.10.2 (build 2542/release)
Writing library : VirtualDubMod build 2542/release

Video
ID : 0
Format : MPEG-4 Visual
Format profile : Advanced Simple@L5
Format settings, BVOP : 2
Format settings, QPel : No
Format settings, GMC : No warppoints
Format settings, Matrix : Default (H.263)
Muxing mode : Packed bitstream
Codec ID : XVID
Codec ID/Hint : XviD
Duration : 1h 2mn
Bit rate : 2 203 Kbps
Width : 720 pixels
Height : 544 pixels
Display aspect ratio : 4:3
Frame rate : 25.000 fps
Color space : YUV
Chroma subsampling : 4:2:0
Bit depth : 8 bits
Scan type : Progressive
Compression mode : Lossy
Bits/(Pixel*Frame) : 0.225
Stream size : 981 MiB (92%)
Writing library : XviD 65

Audio
ID : 1
Format : AC-3
Format/Info : Audio Coding 3
Mode extension : CM (complete main)
Codec ID : 2000
Duration : 1h 2mn
Bit rate mode : Constant
Bit rate : 192 Kbps
Channel(s) : 2 channels
Channel positions : Front: L R
Sampling rate : 48.0 KHz
Bit depth : 16 bits
Compression mode : Lossy
Stream size : 85.5 MiB (8%)
Alignment : Split accross interleaves
Interleave, duration : 40 ms (1.00 video frame)
Interleave, preload duration : 500 ms

=================================









General
Complete name : C:\Cinema\ChelVProkhDvor\Человек в проходном дворе 4 (1971) TVRip.avi
Format : AVI
Format/Info : Audio Video Interleave
File size : 1.06 GiB
Duration : 1h 2mn
Overall bit rate : 2 404 Kbps
Writing application : VirtualDubMod 1.5.10.2 (build 2542/release)
Writing library : VirtualDubMod build 2542/release

Video
ID : 0
Format : MPEG-4 Visual
Format profile : Advanced Simple@L5
Format settings, BVOP : 2
Format settings, QPel : No
Format settings, GMC : No warppoints
Format settings, Matrix : Default (H.263)
Muxing mode : Packed bitstream
Codec ID : XVID
Codec ID/Hint : XviD
Duration : 1h 2mn
Bit rate : 2 203 Kbps
Width : 720 pixels
Height : 544 pixels
Display aspect ratio : 4:3
Frame rate : 25.000 fps
Color space : YUV
Chroma subsampling : 4:2:0
Bit depth : 8 bits
Scan type : Progressive
Compression mode : Lossy
Bits/(Pixel*Frame) : 0.225
Stream size : 991 MiB (92%)
Writing library : XviD 65

Audio
ID : 1
Format : AC-3
Format/Info : Audio Coding 3
Mode extension : CM (complete main)
Codec ID : 2000
Duration : 1h 2mn
Bit rate mode : Constant
Bit rate : 192 Kbps
Channel(s) : 2 channels
Channel positions : Front: L R
Sampling rate : 48.0 KHz
Bit depth : 16 bits
Compression mode : Lossy
Stream size : 86.3 MiB (8%)
Alignment : Split accross interleaves
Interleave, duration : 40 ms (1.00 video frame)
Interleave, preload duration : 500 ms

=================================

Исходником послужил релиз DVB от Cheef mate (запись потока *.ts со спутника EUTELSAT, ремукс в *.mpg программой VideoReDo),
взятый с Рутрекера, за что ему БОЛЬШОЕ СПАСИБО!



Архивы созданы RAR-архиватором с добавлением 3% на восстановление и снабжены sfv-проверочником.
Просьба к первому скачавшему отписаться о сохранности архивов на источнике раздачи.

Раздача рассчитана на месяц.



Другое участие: Chiefmate – предоставление исходной записи




--------------------
Безоблачная старость – это миф,
Поскольку наша память – ширь морская,
И к ночи начинается прилив,
Со дна обломки прошлого таская.
Игорь Губерман

Скрыть подпись


WOLHA
№2 Отправлено: 15.08.2016 - 19:41


Прохожий

Группа: Потребители
Регистрация: 30.11.2009
Сообщений: 42
Обитает:
Последний раз был:
11.09.2017 - 20:56




Архивы в порядке. спасибо за фильм.
Top
bornik
№3 Отправлено: 15.08.2016 - 21:07


Воспоминания - это богатства старости.

Группа: Модераторы
Регистрация: 18.08.2008
Сообщений: 937
Обитает:
Последний раз был:
cегодня в 03:13




Цитата
( WOLHA @ 15.08.2016 - 19:41)
Архивы в порядке. спасибо за фильм.

И Вам, WOLHA, спасибо за добрую весть. happy_fly.gif


--------------------
Безоблачная старость – это миф,
Поскольку наша память – ширь морская,
И к ночи начинается прилив,
Со дна обломки прошлого таская.
Игорь Губерман

Скрыть подпись
Top
bornik
№4 Отправлено: 24.09.2016 - 04:19


Воспоминания - это богатства старости.

Группа: Модераторы
Регистрация: 18.08.2008
Сообщений: 937
Обитает:
Последний раз был:
cегодня в 03:13




Всем спасибо.
Очередь закрыта. Если есть желающие - пишите в ПМ. wink2.gif


--------------------
Безоблачная старость – это миф,
Поскольку наша память – ширь морская,
И к ночи начинается прилив,
Со дна обломки прошлого таская.
Игорь Губерман

Скрыть подпись
Top
1 человек просматривает эту тему (1 гость)
« Предыдущая тема | Отечественное кино | Следующая тема »


 



[Script Execution time: 0,0361]   [23 queries used]   [GZIP enabled]