Заходят многие - остаются лучшие!
Здравствуйте Гость ( Вход | Регистрация ) Выслать повторно письмо для активации
Вход
Ваше имя Пароль Забыли пароль?
Запомнить Вас?
Войти скрытым?



 Правила раздела Новые сообщения раздела  


 

 Дом и хозяин (1967), Старое советское кино
bornik
  №1 Отправлено: 17.08.2016 - 05:08


Воспоминания - это богатства старости.

Группа: Модераторы
Регистрация: 18.08.2008
Сообщений: 937
Обитает:
Последний раз был:
cегодня в 03:13




Дом и хозяин



Предыдущая раздача 22.02.2015 г.

«Дом и хозяин» - советский чёрно-белый художественный фильм режиссёра Будимира Метальникова, поставленный в 1967 году.

Год выпуска: 1967
Жанр: Драма
Выпущено: СССР, Мосфильм
Премьера (СССР): 25 ноября 1968 года

Режиссёр: Будимир Метальников

В ролях:
Иван Лапиков … Егор Байнев, человек с противоречивым, сложным характером, трудной судьбой
Александра Соловьева … Анна Байнева, жена Егора
Стефания Станюта … мать Егора
Борис Новиков … Лёшка
Евгений Шутов … Прохор, председатель колхоза
Пётр Любешкин … Фёдор Батров
Валентина Ананьина … Настя
Валентин Брылеев … эпизод
Евгений Быкадоров … лесоруб
Павел Волков … бухгалтер
Валя Малышева … Вера Байнева, дочь
Вася Курс … Петя Байнев, сын
Александр Гречаный … бригадир рыбаков
Николай Корноухов … лесоруб
Михаил Майоров … Агеев, начальник лесоучастка
Наталья Медведева … Зина
Тамара Солодникова … эпизод
Юрий Саранцев … моряк
Ираида Солдатова … официантка в ресторане
Вера Титова … Маша, жена моряка
Александр Шорохов … эпизод
Кира Жаркова … эпизод
Владимир Липпарт … лесоруб (нет в титрах)
Валентин Голубенко … лесоруб (нет в титрах)
Юрий Киреев … эпизод (нет в титрах)

Сценарист: Будимир Метальников
Оператор: Александр Харитонов
Композитор: Альфред Шнитке
Художник: Георгий Колганов



Описание: У вернувшегося с войны из немецкого плена Егора Байнева одно стремление, одно желание - работать на земле, жить в семье, воспитывать детей. Он идет работать в поле, не ища легкого заработка. Работает на совесть, истово, упорно и, когда приезжает получать хлеб, в ведомости учетчика трудодней значится поболее шестисот. Но получает за этот труд Егор всего лишь мешок зерна. Вот здесь и переламывается повествование. Здесь начинается рассказ не о вернувшихся солдатах, а об этом человеке, Егоре Байневе.
Егор - крестьянин по призванию, семьянин. Но в поисках заработка он расстается и с землей, и с семьей. Оба расставания тяжелы ему, даже трудно понять, которое больше. Он работает на железной дороге, потом уезжает на лесозаготовки, а потом - море и траловый флот. Работает так же хорошо и старательно, как работал бы в колхозе. По-прежнему стремится домой, но остается - новые заботы, новые расходы, новые мечты. И постепенно становится все тоньше, все слабее ниточка, связывающая его с семьей и с деревней. Остались только письма да переводы, которые он акккуратно посылает...











=================================

Исходником послужил релиз DVB от Cheef mate (запись потока *.ts со спутника Ямал 202, 49° в.д., ремукс в *.mpg программой VideoReDo),
взятый с Рутрекера, за что ему БОЛЬШОЕ СПАСИБО!



Архивы созданы RAR-архиватором с добавлением 3% на восстановление и снабжены sfv-проверочником.
Просьба к первому скачавшему отписаться о сохранности архивов на источнике раздачи.

Раздача рассчитана на месяц.


ПРИЯТНОГО ВСЕМ ПРОСМОТРА !!!


General
Complete name : C:\Cinema\Дом и хозяин (1967) TVRip.avi
Format : AVI
Format/Info : Audio Video Interleave
File size : 1.35 GiB
Duration : 1h 25mn
Overall bit rate : 2 269 Kbps
Writing application : VirtualDubMod 1.5.10.2 (build 2540/release)
Writing library : VirtualDubMod build 2540/release

Video
ID : 0
Format : MPEG-4 Visual
Format profile : Advanced Simple@L5
Format settings, BVOP : 2
Format settings, QPel : No
Format settings, GMC : No warppoints
Format settings, Matrix : Default (H.263)
Muxing mode : Packed bitstream
Codec ID : XVID
Codec ID/Hint : XviD
Duration : 1h 25mn
Bit rate : 2 003 Kbps
Width : 720 pixels
Height : 304 pixels
Display aspect ratio : 2.35:1
Frame rate : 25.000 fps
Color space : YUV
Chroma subsampling : 4:2:0
Bit depth : 8 bits
Scan type : Progressive
Compression mode : Lossy
Bits/(Pixel*Frame) : 0.366
Stream size : 1.19 GiB (88%)
Writing library : XviD 65

Audio
ID : 1
Format : MPEG Audio
Format version : Version 1
Format profile : Layer 3
Mode : Joint stereo
Mode extension : MS Stereo
Codec ID : 55
Codec ID/Hint : MP3
Duration : 1h 25mn
Bit rate mode : Constant
Bit rate : 256 Kbps
Channel(s) : 2 channels
Sampling rate : 48.0 KHz
Compression mode : Lossy
Stream size : 156 MiB (11%)
Alignment : Aligned on interleaves
Interleave, duration : 40 ms (1.00 video frame)
Interleave, preload duration : 504 ms
Writing library : LAME3.98r
Encoding settings : -m j -V 4 -q 3 -lowpass 19.7



Другое участие: Chiefmate – предоставление исходной записи




--------------------
Безоблачная старость – это миф,
Поскольку наша память – ширь морская,
И к ночи начинается прилив,
Со дна обломки прошлого таская.
Игорь Губерман

Скрыть подпись


bondsun
№2 Отправлено: 17.08.2016 - 08:00


кучерявый

Группа: Потребители
Регистрация: 17.08.2009
Сообщений: 4175
Обитает:
Последний раз был:
вчера в 15:27





Благодарствую, архивы в порядке.


--------------------
Пусть рушится мир весь вокруг, пополам,
Пусть часто фортуна не прёт.
Не кофе нас должен бодрить по утрам,
А тот, кто его подаёт.

happy.gif

Скрыть подпись
Top
bornik
№3 Отправлено: 17.08.2016 - 11:24


Воспоминания - это богатства старости.

Группа: Модераторы
Регистрация: 18.08.2008
Сообщений: 937
Обитает:
Последний раз был:
cегодня в 03:13




Цитата
( bondsun @ 17.08.2016 - 08:00)
Благодарствую, архивы в порядке.

И Вам, bondsun, спасибо за добрую весть. happy_fly.gif


--------------------
Безоблачная старость – это миф,
Поскольку наша память – ширь морская,
И к ночи начинается прилив,
Со дна обломки прошлого таская.
Игорь Губерман

Скрыть подпись
Top
cherkasy
№4 Отправлено: 20.08.2016 - 17:30


Завсегдатай

Группа: Потребители
Регистрация: 30.12.2011
Сообщений: 452
Последний раз был:
16.09.2017 - 18:02




спасибо !
Top
bornik
№5 Отправлено: 21.08.2016 - 15:27


Воспоминания - это богатства старости.

Группа: Модераторы
Регистрация: 18.08.2008
Сообщений: 937
Обитает:
Последний раз был:
cегодня в 03:13




Цитата
( cherkasy @ 20.08.2016 - 17:30)
спасибо !

cherkasy, пожалуйста.
Приятного просмотра. wink2.gif


--------------------
Безоблачная старость – это миф,
Поскольку наша память – ширь морская,
И к ночи начинается прилив,
Со дна обломки прошлого таская.
Игорь Губерман

Скрыть подпись
Top
bornik
№6 Отправлено: 25.09.2016 - 19:50


Воспоминания - это богатства старости.

Группа: Модераторы
Регистрация: 18.08.2008
Сообщений: 937
Обитает:
Последний раз был:
cегодня в 03:13




Всем спасибо.
Очередь закрыта. Если есть желающие - пишите в ПМ. wink2.gif


--------------------
Безоблачная старость – это миф,
Поскольку наша память – ширь морская,
И к ночи начинается прилив,
Со дна обломки прошлого таская.
Игорь Губерман

Скрыть подпись
Top
1 человек просматривает эту тему (1 гость)
« Предыдущая тема | Отечественное кино | Следующая тема »


 



[Script Execution time: 0,0364]   [23 queries used]   [GZIP enabled]