Заходят многие - остаются лучшие!
Здравствуйте Гость ( Вход | Регистрация ) Выслать повторно письмо для активации
Вход
Ваше имя Пароль Забыли пароль?
Запомнить Вас?
Войти скрытым?



 Правила раздела Новые сообщения раздела  


 

 Судьба поэта / Kismati shoir / Қисмати шоир (1959), Драма,биография,история;Реж.-Б.Кимягаров;Роли-М.Арипов,Н.Шомансурова
SanSan48
  №1 Отправлено: 14.09.2017 - 09:39


"Спартак" - ЧЕМПИОН!!!

Группа: Пользователи
Регистрация: 28.12.2009
Сообщений: 1823
Обитает:
Последний раз был:
cегодня в 07:09




Судьба поэта / Kismati shoir / Қисмати шоир (1959)



Жанр: Драма, биография, история
Выпущено: СССР, Таджикфильм
Год выпуска: 1959
Премьера (СССР): июнь 1959 (Душанбе), 28 сентября 1959 (Москва)
Сценарист: Сатым Улуг-Зода (Заде)
Оператор: Николай Олоновский
Композитор: Андрей Бабаев
Художники: Давид Ильябаев, Иосиф Шпинель, К.Ефимов
Монтажёр: К.Алеева

Режиссёр: Борис (Бенсион) Кимягаров

В ролях:
Марат Арипов … Рудаки
Нозукмо Шомансурова … Робия
Абдульхайр Касымов … Кулал, гончар
Махмуд Тахири … Мадж
Абдулхамид Нурматов … Акбар
Дильбар Касымова … Нигина
Ходжакули Рахматуллаев … Балами
София Туйбаева … Малика
Шамси Джураев … Эмир Наср II
Мухаммеджан Касымов … Сахль бен Мансур
Г.Ниязов … Джунайд
К.Мирзоев … Нух
Захир Дусматов … придворный поэт
Абдусалом Рахимов … Муроди
Алим Ходжаев … Шахид
Бахтали Сабзалиев … Орифи
Анвар Тураев … Шакури
Сталина Азаматова … (нет в титрах)

Описание: О жизни и деятельности знаменитого средневекового персидско-таджикского поэта Рудаки (ок. 860-941), родоначальника поэзии на фарси.
Когда Рудаки пришёл ко двору эмира Насра II, он был молод, но его стихи уже знали многие. Ведь он писал о том, что близко каждому - о любви, верности, дружбе, о прекрасной родной земле, - и писал на таджикском языке, понятном всем простым людям.
Он пользовался поддержкой эмира. Но когда Рудаки полюбил Нигину - рабыню военачальника Сахля бен Мансура, тот сначала согласился отдать свою рабыню Рудаки, но после обманул его и убил Нигину. После смерти Насра II эмиром стал его сын Нух, который приказал ослепить Рудаки. Но слабый, слепой старик Рудаки продолжал слагать свои песни и диктовал стихи своим ученикам…

Дополнительная информация: Релиз:

Автор рипа: pmv

Большое спасибо за:
- исходный DVD5 и разрешение на раздачу - Доброму человеку

Режиссёр дубляжа: Б.Евгенев
Роли дублировали: Алексей Консовский, Георгий Вицин и другие

* Представленный в раздаче фильм из собрания ГФФ, выпущен в подарочном исполнении и является раритетом.

* Фильм раздаётся исключительно в ознакомительных целях и коммерческому распространению не подлежит. Поэтому ПРОСЬБА к скачавшим фильм НЕ РАЗДАВАТЬ данный рип на каких-либо сторонних ресурсах.

IMDb = - (-) - http://www.imdb.com/title/tt2238937/
Кинопоиск = - (6) - https://www.kinopoisk.ru/film/sudba-poeta-1959-565153/

ВНИМАНИЕ!!! РИП ФОРМАТА mkv (кодек H.264) ВОСПРОИЗВОДИТСЯ НЕ НА ВСЕХ БЫТОВЫХ ВИДЕОПЛЕЕРАХ!!!

Параметры файла:
Название: Судьба поэта (1959).mkv
Качество видео: DVDrip
Формат видео: MKV
Размер: 1,41 ГБ (1 521 772 253 байт)
Продолжительность: 01:41:45
Видео: AVC (H264), 704@768x576 (4:3), 25 fps, 1800 kbps, 0.178 Bits/Pixel
Аудио: AC3, 48 KHz, stereo (2 ch), 192 kbps – советский дубляж



General
Unique ID : 176215011004643216956603585514799145382 (0x8491C6D183B349F28ACB06F29C9CA1A6)
Complete name : D:\torrents\Судьба поэта (1959).mkv
Format : Matroska
Format version : Version 4 / Version 2
File size : 1.42 GiB
Duration : 1 h 41 min
Overall bit rate : 1 994 kb/s
Encoded date : UTC 2017-09-11 03:32:47
Writing application : mkvmerge v15.0.0 ('Duel with the Devil') 64-bit
Writing library : libebml v1.3.5 + libmatroska v1.4.5

Video
ID : 1
Format : AVC
Format/Info : Advanced Video Codec
Format profile : High@L4.1
Format settings, CABAC : Yes
Format settings, ReFrames : 16 frames
Codec ID : V_MPEG4/ISO/AVC
Duration : 1 h 41 min
Bit rate : 1 800 kb/s
Width : 704 pixels
Height : 576 pixels
Display aspect ratio : 4:3
Original display aspect ratio : 1.222
Frame rate mode : Constant
Frame rate : 25.000 FPS
Standard : PAL
Color space : YUV
Chroma subsampling : 4:2:0
Bit depth : 8 bits
Scan type : Progressive
Bits/(Pixel*Frame) : 0.178
Stream size : 1.28 GiB (90%)
Writing library : x264 core 146 r2538 121396c
Encoding settings : cabac=1 / ref=16 / deblock=1:0:0 / analyse=0x3:0x133 / me=umh / subme=10 / psy=1 / psy_rd=1.00:0.00 / mixed_ref=1 / me_range=24 / chroma_me=1 / trellis=2 / 8x8dct=1 / cqm=0 / deadzone=21,11 / fast_pskip=1 / chroma_qp_offset=-2 / threads=48 / lookahead_threads=4 / sliced_threads=0 / nr=0 / decimate=1 / interlaced=0 / bluray_compat=0 / constrained_intra=0 / bframes=8 / b_pyramid=2 / b_adapt=2 / b_bias=0 / direct=3 / weightb=1 / open_gop=0 / weightp=2 / keyint=250 / keyint_min=25 / scenecut=40 / intra_refresh=0 / rc_lookahead=60 / rc=2pass / mbtree=1 / bitrate=1800 / ratetol=1.0 / qcomp=0.60 / qpmin=0 / qpmax=69 / qpstep=4 / cplxblur=20.0 / qblur=0.5 / ip_ratio=1.40 / aq=1:1.00
Language : Russian
Default : Yes
Forced : No

Audio
ID : 2
Format : AC-3
Format/Info : Audio Coding 3
Mode extension : CM (complete main)
Format settings, Endianness : Big
Codec ID : A_AC3
Duration : 1 h 41 min
Bit rate mode : Constant
Bit rate : 192 kb/s
Channel(s) : 2 channels
Channel positions : Front: L R
Sampling rate : 48.0 kHz
Frame rate : 31.250 FPS (1536 spf)
Bit depth : 16 bits
Compression mode : Lossy
Stream size : 140 MiB (10%)
Language : Russian
Default : Yes
Forced : No









МОИ РАЗДАЧИ НА ФЕНИКСе: ЗДЕСЬ




Это сообщение отредактировал SanSan48 - 14.09.2017 - 09:43


--------------------
"Спартак" - ЧЕМПИОН!!!

Скрыть подпись


bor in
№2 Отправлено: 14.09.2017 - 11:27


Посетитель

Группа: Потребители
Регистрация: 26.01.2008
Сообщений: 182
Обитает:
Последний раз был:
cегодня в 08:04




Cпасибо за чудесный фильм,с архивами всё в порядке!
Top
SanSan48
№3 Отправлено: 14.09.2017 - 12:51


"Спартак" - ЧЕМПИОН!!!

Группа: Пользователи
Регистрация: 28.12.2009
Сообщений: 1823
Обитает:
Последний раз был:
cегодня в 07:09




Цитата
( bor in @ 14.09.2017 - 11:27)
Cпасибо за чудесный фильм,с архивами всё в порядке!

bor in, Благодарю за сообщение!

Приятного всем просмотра!


--------------------
"Спартак" - ЧЕМПИОН!!!

Скрыть подпись
Top
pushistiy
№4 Отправлено: 15.09.2017 - 05:32


Старожил

Группа: Потребители
Регистрация: 8.12.2013
Сообщений: 605
Последний раз был:
вчера в 18:17




Цитата
SanSan48 @ 14.09.2017 - 09:39
Выпущено: СССР, Таджикфильм

Вот этого не может быть. pain25.gif До 1961 года была Сталинабадская студия художественных фильмов и ничего другого. Поэтому, такие титры в фильме - явный НОВОДЕЛ. wow.gif
P.S. А сам фильм замечателен, хорошо поставлен. DD.gif
Top
Ushkuynik
№5 Отправлено: 15.09.2017 - 07:19


Посетитель

Группа: Потребители
Регистрация: 5.06.2015
Сообщений: 223
Обитает:
Последний раз был:
28.10.2017 - 11:57




Архивы в порядке.
Top
1mark2
№6 Отправлено: 15.09.2017 - 07:56


Гость

Группа: Новички
Регистрация: 14.06.2016
Сообщений: 2
Обитает:
Последний раз был:
15.10.2017 - 15:27




спасибо большое, давно искал этот фильм
Top
Kuzya111
№7 Отправлено: 15.09.2017 - 11:32


Живёт здесь

Группа: Аксакалы
Регистрация: 15.03.2008
Сообщений: 1828
Обитает:
Последний раз был:
вчера в 23:37




Цитата
( pushistiy @ 15.09.2017 - 08:32)
До 1961 года была Сталинабадская студия художественных фильмов и ничего другого. Поэтому, такие титры в фильме - явный НОВОДЕЛ. wow.gif

Не до 1961-го, а как раз до 1959-го.
В 1959-м уже писали и так, и так.
В частности, в фильме "Человек меняет кожу" (1959) в 1-й серии - Сталинабадская, а во 2-й серии - уже "Таджикфильм" (если бы кто-то делал новодел, то заменил бы в обеих сериях, а не в одной).
Top
pushistiy
№8 Отправлено: 19.09.2017 - 16:34


Старожил

Группа: Потребители
Регистрация: 8.12.2013
Сообщений: 605
Последний раз был:
вчера в 18:17




Цитата
Kuzya111 @ 15.09.2017 - 11:32
Цитата
pushistiy @ 15.09.2017 - 08:32
До 1961 года была Сталинабадская студия художественных фильмов и ничего другого. Поэтому, такие титры в фильме - явный НОВОДЕЛ. wow.gif

Не до 1961-го, а как раз до 1959-го.
В 1959-м уже писали и так, и так.
В частности, в фильме "Человек меняет кожу" (1959) в 1-й серии - Сталинабадская, а во 2-й серии - уже "Таджикфильм" (если бы кто-то делал новодел, то заменил бы в обеих сериях, а не в одной).

Отправляю Вас, дорогой, в Википедию в раздел "Студия "Таджикфильм" - пускай там рассудят, кто кривит душой wow.gif
P.S. Ну а как же со следующим фильмом - "Я встретил девушку", 1957 - там ТОЖЕ Таджикфильм в титрах wow.gif wow.gif Как Вы ЭТО объясните ? pain25.gif
P.P.S. Да и логики, простите за назойливость, в этом нет : САМ Душанбе "вырос" из Сталинабада как раз в конце 1961 года wink2.gif


Это сообщение отредактировал pushistiy - 19.09.2017 - 16:45
Top
1 человек просматривает эту тему (1 гость)
« Предыдущая тема | Отечественное кино | Следующая тема »


 



[Script Execution time: 0,0467]   [24 queries used]   [GZIP enabled]