Заходят многие - остаются лучшие!
Здравствуйте Гость ( Вход | Регистрация ) Выслать повторно письмо для активации
Вход
Ваше имя Пароль Забыли пароль?
Запомнить Вас?
Войти скрытым?



 Правила раздела Новые сообщения раздела  


 

 Грядущему веку (5 серий) (1985), Драма,киноповесть;Реж.-И.Хамраев;Роли-Ю.Киселюс,Е.Проклова,Д.Банионис,
SanSan48
  №1 Отправлено: 9.02.2016 - 15:14


"Спартак" - ЧЕМПИОН!!!

Группа: Пользователи
Регистрация: 28.12.2009
Сообщений: 2043
Обитает:
Последний раз был:
cегодня в 08:44




Грядущему веку (5 серий) (1985)



Жанр: Драма, киноповесть
Выпущено: СССР, Ленфильм (По заказу Государственного Комитета Совета Министров СССР по телевидению и радиовещанию)
Год выпуска: 1985
Премьера (СССР): 26 июня 1985 (ЦТ СССР)
Сценаристы: Георгий Марков, Эдуард Шим
Оператор: Лев Колганов
Композитор: Эдуард Артемьев
Художники: Марксэн Гаухман-Свердлов

Режиссёр: Искандер Хамраев

В ролях: Юозас Киселюс, Елена Проклова, Гражина Байкштите, Отар Коберидзе, Всеволод Шиловский, Донатас Банионис, Иван Краско, Пётр Чернов, Александр Вонтов, Вера Улик, Игорь Боголюбов, Светлана Пенкина, Юрий Башков, Юрий Ароян, Игорь Эрельт, Владимир Карпенко, Елена Капица, Роман Громадский, Геннадий Воропаев, Светлана Старикова, Григорий Гай, Герман Качин, Николай Муравьев, Ольга Агеева, Саша Семёнов, Валентина Ананьина, Алексей Миронов, Владимир Рецептер, Марина Чернышёва и другие

Описание: Экранизация одноименного романа Георгия Маркова.
Телесериал, в котором продолжается эпопейное повествование о Синегорском крае, теперь в условиях начала «перестройки». Последняя часть трилогии о нескольких поколениях семьи Строговых (первые два фильма “Строговы” и “Соль земли”). История Максима Строгова - секретаря крупного уральского обкома партии, выдвиженца нового, перестроечного времени...

Дополнительная информация: Релиз:

Автор рипа: pmv

Исходник DVB с раздачи Cheef mate , за что ему большое спасибо.
(Запись потока *.ts со спутника Eutelsat Hot Bird 13B/C/D, 13° в.д. c ТК «Наше любимое кино»)

IMDb = - - http://www.imdb.com/title/tt0174715/
Кинопоиск = - (34) - http://www.kinopoisk.ru/film/85169/

ВНИМАНИЕ!!! РИП ФОРМАТА mkv (кодек H.264) ВОСПРОИЗВОДИТСЯ НЕ НА ВСЕХ БЫТОВЫХ ВИДЕОПЛЕЕРАХ!!!

Параметры файла:
Название: Грядущему-веку-5-серий-1985.mkv
Качество видео: SAT-AVC
Формат видео: MKV
Размер: 2,19 ГБ (2 356 151 688 bytes)
Продолжительность: 01:07:13 + 01:05:35 + 01:03:49 + 01:06:41 + 01:03:54 = 05:27:12
Видео: AVC (H264), 688@757х568 (1.33:1), 25 fps, 741 Kbps, 0.076
Аудио: 48 kHz, AC3 Dolby Digital, stereo (2 ch), ~ 192.00 kbps avg



General
Unique ID : 186265335931189612517398916821276911160 (0x8C216618393CE63295897008DB976638)
Complete name : D:\torrents\Грядущему-веку-5-серий-1985.mkv
Format : Matroska
Format version : Version 4 / Version 2
File size : 2.19 GiB
Duration : 5h 27mn
Overall bit rate : 960 Kbps
Encoded date : UTC 2016-02-06 18:05:55
Writing application : mkvmerge v8.8.0 ('Wind at my back') 64bit
Writing library : libebml v1.3.3 + libmatroska v1.4.4
DURATION : 05:27:12.064000000
NUMBER_OF_FRAMES : 613502
NUMBER_OF_BYTES : 471169536
_STATISTICS_WRITING_APP : mkvmerge v8.8.0 ('Wind at my back') 64bit
_STATISTICS_WRITING_DATE_UTC : 2016-02-06 18:05:55
_STATISTICS_TAGS : BPS DURATION NUMBER_OF_FRAMES NUMBER_OF_BYTES

Video
ID : 1
Format : AVC
Format/Info : Advanced Video Codec
Format profile : High@L4.1
Format settings, CABAC : Yes
Format settings, ReFrames : 16 frames
Codec ID : V_MPEG4/ISO/AVC
Duration : 5h 27mn
Bit rate : 741 Kbps
Width : 688 pixels
Height : 568 pixels
Display aspect ratio : 4:3
Original display aspect ratio : 1.211
Frame rate mode : Constant
Frame rate : 25.000 fps
Color space : YUV
Chroma subsampling : 4:2:0
Bit depth : 8 bits
Scan type : Progressive
Bits/(Pixel*Frame) : 0.076
Stream size : 1.71 GiB (78%)
Writing library : x264 core 146 r2538 121396c
Encoding settings : cabac=1 / ref=16 / deblock=1:0:0 / analyse=0x3:0x133 / me=umh / subme=10 / psy=1 / psy_rd=1.00:0.00 / mixed_ref=1 / me_range=24 / chroma_me=1 / trellis=2 / 8x8dct=1 / cqm=0 / deadzone=21,11 / fast_pskip=1 / chroma_qp_offset=-2 / threads=36 / lookahead_threads=4 / sliced_threads=0 / nr=0 / decimate=1 / interlaced=0 / bluray_compat=0 / constrained_intra=0 / bframes=8 / b_pyramid=2 / b_adapt=2 / b_bias=0 / direct=3 / weightb=1 / open_gop=0 / weightp=2 / keyint=250 / keyint_min=25 / scenecut=40 / intra_refresh=0 / rc_lookahead=60 / rc=2pass / mbtree=1 / bitrate=741 / ratetol=1.0 / qcomp=0.60 / qpmin=0 / qpmax=69 / qpstep=4 / cplxblur=20.0 / qblur=0.5 / ip_ratio=1.40 / aq=1:1.00
Language : Russian
Default : Yes
Forced : No

Audio
ID : 2
Format : AC-3
Format/Info : Audio Coding 3
Mode extension : CM (complete main)
Format settings, Endianness : Big
Codec ID : A_AC3
Duration : 5h 27mn
Bit rate mode : Constant
Bit rate : 192 Kbps
Channel(s) : 2 channels
Channel positions : Front: L R
Sampling rate : 48.0 KHz
Bit depth : 16 bits
Compression mode : Lossy
Stream size : 449 MiB (20%)
Language : Russian
Default : Yes
Forced : No








Cheef mate, DVB, mkv, 704 х 576, 6.45 Gb < > pmv, SATRip, mkv, 757 х 568, 2.35 Gb
http://r_utracker.org/forum/viewtopic.php?t=5163459
http://screenshotcomparison.com/comparison/161086


МОИ РАЗДАЧИ НА ФЕНИКСе: ЗДЕСЬ




Это сообщение отредактировал SanSan48 - 12.01.2019 - 11:48


--------------------
"Спартак" - ЧЕМПИОН!!!

Скрыть подпись


bondsun
№2 Отправлено: 9.02.2016 - 16:19


кучерявый

Группа: Потребители
Регистрация: 17.08.2009
Сообщений: 4675
Обитает:
Последний раз был:
cегодня в 11:55





Благодарствую, архивы в порядке.


--------------------
Пусть рушится мир весь вокруг, пополам,
Пусть часто фортуна не прёт.
Не кофе нас должен бодрить по утрам,
А тот, кто его подаёт.

happy.gif

Скрыть подпись
Top
SanSan48
№3 Отправлено: 9.02.2016 - 16:59


"Спартак" - ЧЕМПИОН!!!

Группа: Пользователи
Регистрация: 28.12.2009
Сообщений: 2043
Обитает:
Последний раз был:
cегодня в 08:44




Цитата
( bondsun @ 9.02.2016 - 16:19)
Благодарствую, архивы в порядке.

bondsun, Благодарю за сообщение!


--------------------
"Спартак" - ЧЕМПИОН!!!

Скрыть подпись
Top
1 человек просматривает эту тему (1 гость)
« Предыдущая тема | Отечественное кино | Следующая тема »


 



[Script Execution time: 0,0298]   [23 queries used]   [GZIP enabled]