Заходят многие - остаются лучшие!
Здравствуйте Гость ( Вход | Регистрация ) Выслать повторно письмо для активации
Вход
Ваше имя Пароль Забыли пароль?
Запомнить Вас?
Войти скрытым?



Новые сообщения раздела  

 

 Свято-Юрьев мужской монастырь (2013), RTG Production Studios
bornik
  №1 Отправлено: 11.04.2018 - 16:41


Воспоминания - это богатства старости.

Группа: Модераторы
Регистрация: 18.08.2008
Сообщений: 1008
Обитает:
Последний раз был:
cегодня в 02:34




Свято-Юрьев мужской монастырь (2013)



«Свято-Юрьев монастырь» - cтроения монастыря первоначально были деревянными, как и его соборная церковь Святого Георгия. В 1119 году повелением князя Мстислава Великого был заложен каменный храм — Георгиевский собор, выстроен был мастером Петром — первым русским зодчим, имя которого называют летописи.
Монашеская община восстановлена в 1995 году.
Является объектом культурного наследия федерального значения.

Оригинальное название: Свято-Юрьев мужской монастырь
Год выпуска: 2013
Жанр: Документальный, познавательный
Выпущено: Россия, , RTG Production Studios
Продолжительность: 00:26:53
Субтитры: Русские (мои)

Режиссёр: Игорь Соколов / Igor Sokolov
Сценарист: Андрей Зарва / Andrei Zarva

Ведущий: Александр Уваров / Alexander Uvarov

Описание: Свято-Юрьев мужской монастырь - один из древнейших монастырей России XII в., расположенный у истоков Волхова, близ озера Ильмень, является частью грандиозной природной панорамы. В прошлом - духовный центр Новгородской республики, южный форпост Великого Новгорода, основанный великим киевским князем Ярославом, при крещении получившим имя Георгий (в честь Георгия Победоносца). Ныне - действующий мужской монастырь Русской Православной Церкви. Находится в 5 км от Великого Новгорода на берегу реки Волхов вблизи озера Ильмень. До 1918 года имел статус 1-классной обители. Главный храм Юрьева монастыря — Георгиевский собор (1119 - 1130 гг.) — удивительно гармоничен, будто высечен из куска белого камня. В нем можно увидеть фрагменты фресковой живописи XII в. В архимандритском корпусе Юрьева монастыря находится Новгородское епархиальное духовное училище. Зрителям предлагается совершить небольшую видеоэкскурсию и узнать для себя немало нового и интересного!









General
Complete name : C:\DVD documental fimls\RTG\Свято-Юрьев мужской монастырь\Свято-Юрьев мужской монастырь (2013).avi
FFormat : AVI
Format/Info : Audio Video Interleave
File size : 425 MiB
Duration : 26mn 53s
Overall bit rate : 2 211 Kbps
Writing application : VirtualDubModRus 1.5.10.2 (build 2540/release)
Writing library : VirtualDubMod build 2540/release

Video
ID : 0
Format : MPEG-4 Visual
Format profile : Advanced Simple@L5
Format settings, BVOP : 2
Format settings, QPel : No
Format settings, GMC : No warppoints
Format settings, Matrix : Default (H.263)
Muxing mode : Packed bitstream
Codec ID : XVID
Codec ID/Hint : XviD
Duration : 26mn 53s
Bit rate : 2 001 Kbps
Width : 720 pixels
Height : 400 pixels
Display aspect ratio : 16:9
Frame rate : 50.000 fps
Color space : YUV
Chroma subsampling : 4:2:0
Bit depth : 8 bits
Scan type : Progressive
Compression mode : Lossy
Bits/(Pixel*Frame) : 0.139
Stream size : 385 MiB (91%)
Writing library : XviD 65

Audio
ID : 1
Format : MPEG Audio
Format version : Version 1
Format profile : Layer 3
Codec ID : 55
Codec ID/Hint : MP3
Duration : 26mn 53s
Bit rate mode : Constant
Bit rate : 192 Kbps
Channel(s) : 2 channels
Sampling rate : 48.0 KHz
Compression mode : Lossy
Stream size : 36.9 MiB (9%)
Alignment : Aligned on interleaves
Interleave, duration : 24 ms (1.20 video frame)
Interleave, preload duration : 504 ms
Writing library : LAME3.98r
Encoding settings : -m s -V 4 -q 3 -lowpass 18.6 -b 192


=================================

Исходником послужил релиз HDTV, найденный на просторах инета!

Архивы созданы RAR-архиватором с добавлением 3% на восстановление и снабжены sfv-проверочником.
Просьба к первому скачавшему отписаться о сохранности архивов на источнике раздачи.


ПРИЯТНОГО ВСЕМ ПРОСМОТРА !!!




--------------------
Безоблачная старость – это миф,
Поскольку наша память – ширь морская,
И к ночи начинается прилив,
Со дна обломки прошлого таская.
Игорь Губерман

Скрыть подпись


nota
№2 Отправлено: 11.04.2018 - 19:42


Посетитель

Группа: Потребители
Регистрация: 31.10.2007
Сообщений: 141
Обитает:
Последний раз был:
вчера в 19:42




Спасибо большое ! Архивы в порядке !
Top
bornik
№3 Отправлено: 11.04.2018 - 20:41


Воспоминания - это богатства старости.

Группа: Модераторы
Регистрация: 18.08.2008
Сообщений: 1008
Обитает:
Последний раз был:
cегодня в 02:34




Цитата
( nota @ 11.04.2018 - 19:42)
Спасибо большое ! Архивы в порядке !

И Вам, nota, спасибо за добрую весть. happy_fly.gif


--------------------
Безоблачная старость – это миф,
Поскольку наша память – ширь морская,
И к ночи начинается прилив,
Со дна обломки прошлого таская.
Игорь Губерман

Скрыть подпись
Top
1 человек просматривает эту тему (1 гость)
« Предыдущая тема | Мир вокруг нас | Следующая тема »


 



[Script Execution time: 0,0329]   [23 queries used]   [GZIP enabled]