Заходят многие - остаются лучшие!
Здравствуйте Гость ( Вход | Регистрация ) Выслать повторно письмо для активации
Вход
Ваше имя Пароль Забыли пароль?
Запомнить Вас?
Войти скрытым?



Новые сообщения раздела  

 

 Лягушка-монстр / National Geographic. Monster Frog (2014), National Geographic
bornik
  №1 Отправлено: 11.04.2017 - 02:13


Воспоминания - это богатства старости.

Группа: Модераторы
Регистрация: 18.08.2008
Сообщений: 876
Обитает:
Последний раз был:
cегодня в 05:51




Лягушка-монстр / National Geographic. Monster Frog (2014)



«Лягушка-монстр» - амфибии населяют планету издревле. В разные этапы эволюции преобладали крупные и малые виды удивительных земноводных. Сегодня науке известно более пяти тысяч видов лягушек. Их родина – как тропики, так и болотистые, пустынные местности и даже морозная тундра. Лягушки в процессе приспособляемости к внешней среде обрели подчас странные навыки, а также разнообразные формы, окрас и размеры.

Название: Лягушка-монстр
Оригинальное название: Monster Frog
Год выпуска: 2014
Жанр: Документальный, природа, фауна, флора
Выпущено: США, Earth Touch USA, Smithsonian Networks in association with ORF/Universum, National Geographic Television
Продолжительность: 00:43:58
Субтитры: Русские (мои)

Режиссёр: Бенджамин Хьюитт / Benjamin Hewett

Программа озвучена студией "Велес"
Текст читает: Олег Белов

Описание: Тысячи лет амфибии, крупные и мелкие, царствовали на земле. В наши дни существует более 5000 видов лягушек. Они населяют все уголки планеты от тропических джунглей и тёмных болот до пустынных областей и ледяной тундры. В ходе эволюции некоторые избранные развили странные навыки. Представители этого поразительного семейства бывают разных видов, форм и размеров. Армия гигантов поднимается из под земли, что бы поесть после долгого сна, а ночные хищники раздирают добычу когтями. Одни из них припасли смертельный яд, отпугивающий змей, другие нарушают законы гравитации, восстают из мёртвых и даже летают. В этом фильме мы расскажем о невидимых, волосатых и уродливых представителях этого семейства, а также о лягушке Голиафе, которая до сих пор прячется в джунглях центральной Африки. Это одна из самых редких и крупных представителей отряда, когда - либо обитавших на Земле. О невероятных лягушках дикой природы - в фильме "Лягушка-монстр".







General
Complete name : C:\DVD documental fimls\Лягушка-монстр\Лягушка-монстр (2014).avi
Format : AVI
Format/Info : Audio Video Interleave
File size : 759 MiB
Duration : 43mn 58s
Overall bit rate : 2 414 Kbps
Writing application : VirtualDubMod 1.5.10.2 (build 2540/release)
Writing library : VirtualDubMod build 2540/release

Video
ID : 0
Format : MPEG-4 Visual
Format profile : Advanced Simple@L5
Format settings, BVOP : 2
Format settings, QPel : No
Format settings, GMC : No warppoints
Format settings, Matrix : Default (H.263)
Muxing mode : Packed bitstream
Codec ID : XVID
Codec ID/Hint : XviD
Duration : 43mn 58s
Bit rate : 2 204 Kbps
Width : 720 pixels
Height : 400 pixels
Display aspect ratio : 16:9
Frame rate : 50.000 fps
Color space : YUV
Chroma subsampling : 4:2:0
Bit depth : 8 bits
Scan type : Progressive
Compression mode : Lossy
Bits/(Pixel*Frame) : 0.153
Stream size : 693 MiB (91%)
Writing library : XviD 65

Audio
ID : 1
Format : MPEG Audio
Format version : Version 1
Format profile : Layer 3
Mode : Joint stereo
Mode extension : MS Stereo
Codec ID : 55
Codec ID/Hint : MP3
Duration : 43mn 58s
Bit rate mode : Constant
Bit rate : 192 Kbps
Channel(s) : 2 channels
Sampling rate : 48.0 KHz
Compression mode : Lossy
Stream size : 60.4 MiB (8%)
Alignment : Aligned on interleaves
Interleave, duration : 24 ms (1.20 video frame)
Interleave, preload duration : 504 ms


=================================

Исходником послужил релиз HDTV, найденный на просторах инета!

Архивы созданы RAR-архиватором с добавлением 3% на восстановление и снабжены sfv-проверочником.
Просьба к первому скачавшему отписаться о сохранности архивов на источнике раздачи.

Раздача рассчитана на месяц.

ПРИЯТНОГО ВСЕМ ПРОСМОТРА !!!




--------------------
Безоблачная старость – это миф,
Поскольку наша память – ширь морская,
И к ночи начинается прилив,
Со дна обломки прошлого таская.
Игорь Губерман

Скрыть подпись


RussianGuy
№2 Отправлено: 11.04.2017 - 04:37


Посетитель

Группа: Потребители
Регистрация: 12.02.2007
Сообщений: 285
Обитает:
Последний раз был:
вчера в 15:16




Все скачалось. Спасибо
Top
bornik
№3 Отправлено: 11.04.2017 - 08:17


Воспоминания - это богатства старости.

Группа: Модераторы
Регистрация: 18.08.2008
Сообщений: 876
Обитает:
Последний раз был:
cегодня в 05:51




Цитата
RussianGuy @ 11.04.2017 - 04:37
Все скачалось. Спасибо

И Вам, RussianGuy, спасибо за добрую весть. wink2.gif


--------------------
Безоблачная старость – это миф,
Поскольку наша память – ширь морская,
И к ночи начинается прилив,
Со дна обломки прошлого таская.
Игорь Губерман

Скрыть подпись
Top
grival406
№4 Отправлено: 11.04.2017 - 17:15


Старожил

Группа: Потребители
Регистрация: 3.03.2016
Сообщений: 872
Обитает:
Последний раз был:
cегодня в 06:07




И Вам, bornik, спасибо, за
прекрасные выкладки!


--------------------
Я знаю только одного тирана, и это тихий голос совести.
Махатма Ганди

Скрыть подпись
Top
1 человек просматривает эту тему (1 гость)
« Предыдущая тема | Мир вокруг нас | Следующая тема »


 



[Script Execution time: 0,0243]   [23 queries used]   [GZIP enabled]