Заходят многие - остаются лучшие!
Здравствуйте Гость ( Вход | Регистрация ) Выслать повторно письмо для активации
Вход
Ваше имя Пароль Забыли пароль?
Запомнить Вас?
Войти скрытым?



Новые сообщения раздела  

 

 Простая смерть... (1985) DVDRip, драма, экранизация
sharky
  №1 Отправлено: 16.08.2017 - 16:07


Человек дождя

Группа: Аксакалы
Регистрация: 7.09.2007
Сообщений: 9728
Обитает:
Последний раз был:
cегодня в 13:57
~




Простая смерть... (1985)


Предыдущая раздача

Предыдущая раздача

Название: Простая смерть...
Год выхода: 1985
Жанр: драма, экранизация
Режиссер: Александр Кайдановский
Сценарист: Александр Кайдановский
Оператор: Юрий Клименко
Художник: Алексей Рудяков
В ролях: Алиса Фрейндлих, Валерий Приёмыхов, Витаутас Паукште, Михаил Данилов, Карина Моритц, Э. Смирнов, Тамара Тимофеева, Станислав Чуркин, Анатолий Худолеев, А. Бухвалов, Виктор Старостин, Юрий Серов, Т. Соловьев, И. Петров, А. Дмитриева, Коля Васкевич, Оля Колеватова, Павлик Иванов
О фильме: Мир и жизнь, увиденные глазами героя, оказываются бесконечно равнодушны к его боли и страданиям. Но неожиданно для себя в момент смерти он испытывает облегчение и успокоение.
"Нельзя так жить!" — голос Толстого со старой пластинки обрамляет все повествование.

Дипломная работа Александра Кайдановского по мотивам повести Л. Н. Толстого "Смерть Ивана Ильича".

"Картину пришлось защищать на госкомиссии от обвинений в "неслыханном физиологизме". Однако в те горбачевские времена фильм не только не запретили, но даже отправили на кинофестиваль в испанский город Малагу, где он был удостоен одного из призов".
Андрей Шестаков
Выпущено: СССР, Ленфильм
Премьера: сентябрь 1988 (СССР)


General
Complete name : Простая смерть... (1985) DVDRip.avi
Format : AVI
Format/Info : Audio Video Interleave
File size : 1.09 GiB
Duration : 1 h 4 min
Overall bit rate : 2 408 kb/s
Writing application : VirtualDubMod 1.5.10.2 (build 2542/release)
Writing library : VirtualDubMod build 2542/release

Video
ID : 0
Format : MPEG-4 Visual
Format profile : Advanced Simple@L5
Format settings, BVOP : 1
Format settings, QPel : No
Format settings, GMC : No warppoints
Format settings, Matrix : Default (H.263)
Codec ID : XVID
Codec ID/Hint : XviD
Duration : 1 h 4 min
Bit rate : 2 206 kb/s
Width : 704 pixels
Height : 528 pixels
Display aspect ratio : 4:3
Frame rate : 25.000 FPS
Color space : YUV
Chroma subsampling : 4:2:0
Bit depth : 8 bits
Scan type : Progressive
Compression mode : Lossy
Bits/(Pixel*Frame) : 0.237
Stream size : 1 022 MiB (92%)
Writing library : XviD 1.2.0.dev47 (UTC 2006-11-01)

Audio
ID : 1
Format : AC-3
Format/Info : Audio Coding 3
Format settings, Endianness : Big
Codec ID : 2000
Duration : 1 h 4 min
Bit rate mode : Constant
Bit rate : 192 kb/s
Channel(s) : 2 channels
Channel positions : Front: L R
Sampling rate : 48.0 kHz
Frame rate : 31.250 FPS (1536 spf)
Bit depth : 16 bits
Compression mode : Lossy
Stream size : 88.9 MiB (8%)
Alignment : Split accross interleaves
Interleave, duration : 40 ms (1.00 video frame)
Interleave, preload duratio : 500 ms
Service kind : Complete Main






















Раздача рассчитана на две - три недели.

Просьба: первому скачавшему сообщить о состоянии архива.




Это сообщение отредактировал sharky - 16.08.2017 - 19:23


--------------------

Лень - двигатель прогресса!

Скрыть подпись


valkopt
№2 Отправлено: 16.08.2017 - 21:23


Старожил

Группа: Потребители
Регистрация: 10.04.2007
Сообщений: 551
Обитает:
Последний раз был:
cегодня в 15:03




Архив находится в полном порядке. Кино смотрится и с большим удовольствием.

Спасибо за раздачу!
Top
sharky
№3 Отправлено: 17.08.2017 - 03:17


Человек дождя

Группа: Аксакалы
Регистрация: 7.09.2007
Сообщений: 9728
Обитает:
Последний раз был:
cегодня в 13:57
~




Цитата
( valkopt @ 16.08.2017 - 21:23)
Архив находится в полном порядке. Кино смотрится и с большим удовольствием.

Спасибо за раздачу!

Пожалуйста и спасибо за информацию.


--------------------

Лень - двигатель прогресса!

Скрыть подпись
Top
wider2
№4 Отправлено: 17.08.2017 - 05:35


Старожил

Группа: Потребители
Регистрация: 17.10.2006
Сообщений: 982
Обитает:
Последний раз был:
cегодня в 14:08




наверное не смогу смотреть
лучше жить и радоваться жизни, как это любят делать дамы
и так каждый день этого бардака... через край
Top
sharky
№5 Отправлено: 17.08.2017 - 12:35


Человек дождя

Группа: Аксакалы
Регистрация: 7.09.2007
Сообщений: 9728
Обитает:
Последний раз был:
cегодня в 13:57
~




Цитата
( wider2 @ 17.08.2017 - 05:35)
наверное не смогу смотреть
лучше жить и радоваться жизни, как это любят делать дамы
и так каждый день этого бардака... через край

Да, фильм не из легких.


--------------------

Лень - двигатель прогресса!

Скрыть подпись
Top
1 человек просматривает эту тему (1 гость)
« Предыдущая тема | Элитарное кино | Следующая тема »


 



[Script Execution time: 0,0263]   [22 queries used]   [GZIP enabled]