Заходят многие - остаются лучшие!
Здравствуйте Гость ( Вход | Регистрация ) Выслать повторно письмо для активации
Вход
Ваше имя Пароль Забыли пароль?
Запомнить Вас?
Войти скрытым?



Новые сообщения раздела  

 

 Александровский дворец (2012), RTG Production Studios
bornik
  №1 Отправлено: 3.05.2018 - 16:09


Воспоминания - это богатства старости.

Группа: Модераторы
Регистрация: 18.08.2008
Сообщений: 1025
Обитает:
Последний раз был:
cегодня в 17:40




Александровский дворец (2012)



«Александровский дворец» - один из императорских дворцов Царского Села (ныне город Пушкин). Построен в стиле палладианского классицизма в 1792—1796 годах. по распоряжению императрицы Екатерины II в подарок к бракосочетанию её внука, великого князя Александра Павловича. Проект дворца составил Джакомо Кваренги.
Является объектом культурного наследия народов РФ федерального значения.

Оригинальное название: Александровский дворец
Год выпуска: 2012
Жанр: Документальный, познавательный
Выпущено: Россия, , RTG Production Studios
Продолжительность: 00:27:41
Субтитры: Русские (мои)


Режиссёр: Александр Ефимов / Alexandr Efimov
Сценарист: Андрей Соколов / Andrei Sokolov


Ведущая: Евгения Альтфельд / Eugenia Altfeld


Описание: Последняя резиденция русских царей - Александровский дворец. Любимый дом русской императорской семьи. Здесь родился Николай II, и именно отсюда его увезли в ссылку, где впоследствии расстреляли. Своё начало история парка берёт от так называемого "зверинца", охотничьих угодий супруги Петра Великого Екатерины I, где для увеселения императрицы держали различных зверей и птиц. Постепенно лес превратился в парк и царскую резиденцию, где воспитывались великие князья и княгини. Для их обучения была построена готическая башня, искусственная средневековая руина и домик на детском острове. Музейные экспонаты и воссозданные интерьеры передают историю династии Романовых от золотого века Екатерины II до начала XX столетия.
Зрителям предлагается совершить небольшую видеоэкскурсию и узнать для себя немало нового и интересного!









General
Complete name : C:\DVD documental fimls\RTG\Александровский дворец\Александровский дворец (2012).avi
Format : AVI
Format/Info : Audio Video Interleave
File size : 436 MiB
Duration : 27mn 41s
Overall bit rate : 2 203 Kbps
Writing application : VirtualDubMod 1.5.10.2 (build 2540/release)
Writing library : VirtualDubMod build 2540/release

Video
ID : 0
Format : MPEG-4 Visual
Format profile : Advanced Simple@L5
Format settings, BVOP : 2
Format settings, QPel : No
Format settings, GMC : No warppoints
Format settings, Matrix : Default (H.263)
Muxing mode : Packed bitstream
Codec ID : XVID
Codec ID/Hint : XviD
Duration : 27mn 41s
Bit rate : 2 001 Kbps
Width : 720 pixels
Height : 400 pixels
Display aspect ratio : 16:9
Frame rate : 25.000 fps
Color space : YUV
Chroma subsampling : 4:2:0
Bit depth : 8 bits
Scan type : Progressive
Compression mode : Lossy
Bits/(Pixel*Frame) : 0.278
Stream size : 396 MiB (91%)
Writing library : XviD 65

Audio
ID : 1
Format : MPEG Audio
Format version : Version 1
Format profile : Layer 3
Codec ID : 55
Codec ID/Hint : MP3
Duration : 27mn 41s
Bit rate mode : Constant
Bit rate : 192 Kbps
Channel(s) : 2 channels
Sampling rate : 48.0 KHz
Compression mode : Lossy
Stream size : 38.0 MiB (9%)
Alignment : Aligned on interleaves
Interleave, duration : 40 ms (1.00 video frame)
Interleave, preload duration : 504 ms
Writing library : LAME3.98r
Encoding settings : -m s -V 4 -q 3 -lowpass 18.6 -b 192


=================================

Исходником послужил релиз HDTV, найденный на просторах инета!

Архивы созданы RAR-архиватором с добавлением 3% на восстановление и снабжены sfv-проверочником.
Просьба к первому скачавшему отписаться о сохранности архивов на источнике раздачи.


ПРИЯТНОГО ВСЕМ ПРОСМОТРА !!!




--------------------
Безоблачная старость – это миф,
Поскольку наша память – ширь морская,
И к ночи начинается прилив,
Со дна обломки прошлого таская.
Игорь Губерман

Скрыть подпись
Alevtina
№2 Отправлено: 3.05.2018 - 16:27


Время камни собирать...

Группа: Аксакалы
Регистрация: 12.02.2009
Сообщений: 5686
Обитает:
Последний раз был:
позавчера в 20:20




bornik, все замечательно и очень хорошо смотрится, великолепный фильм, похоже. Сейчас сразу же посмотрю. Спасибо большое!!!! zdarov1.gif


--------------------

Прохожие, купите Доброту!
Лишь за улыбку! Разве ж это много!
Исполните заветную мечту…
И хоть одну из Заповедей Бога!
Снимите маски «гордых» и «крутых»
Купите, хоть немножечко, Терпенья.
И ощутите сердцем, хоть на миг,
Всю прелесть и восторг благодаренья!
Сегодня, АКЦИЯ на Совесть и Любовь!
Притормозите «хаммер» свой, иль «буммер»!
Купите! И волнуйте свою кровь!
От этого ещё никто не умер!


Скрыть подпись
Top
bornik
№3 Отправлено: 3.05.2018 - 17:11


Воспоминания - это богатства старости.

Группа: Модераторы
Регистрация: 18.08.2008
Сообщений: 1025
Обитает:
Последний раз был:
cегодня в 17:40




Цитата
( Alevtina @ 3.05.2018 - 16:27)
bornik, все замечательно и очень хорошо смотрится, великолепный фильм, похоже. Сейчас сразу же посмотрю. Спасибо большое!!!! zdarov1.gif

И Вам, Alevtina, спасибо за добрую весть. happy_fly.gif
Приятного Вам просмотра. wink2.gif


--------------------
Безоблачная старость – это миф,
Поскольку наша память – ширь морская,
И к ночи начинается прилив,
Со дна обломки прошлого таская.
Игорь Губерман

Скрыть подпись
Top
nota
№4 Отправлено: 19.05.2018 - 05:47


Посетитель

Группа: Потребители
Регистрация: 31.10.2007
Сообщений: 143
Обитает:
Последний раз был:
cегодня в 18:13




Прошу прощения, ошибся кнопкой! Можно вернуть меня в очередь ?
Top
rtynfdh
№5 Отправлено: 19.05.2018 - 06:06


Живёт здесь

Группа: Модераторы
Регистрация: 3.05.2011
Сообщений: 2207
Обитает:
Последний раз был:
cегодня в 13:09




Цитата
( nota @ 19.05.2018 - 05:47)
Прошу прощения, ошибся кнопкой! Можно вернуть меня в очередь ?

Линк выслан заново. Удачи.
Top
1 человек просматривает эту тему (1 гость)
« Предыдущая тема | Мир вокруг нас | Следующая тема »


 



[Script Execution time: 0,0290]   [23 queries used]   [GZIP enabled]