Заходят многие - остаются лучшие!
Здравствуйте Гость ( Вход | Регистрация ) Выслать повторно письмо для активации
Вход
Ваше имя Пароль Забыли пароль?
Запомнить Вас?
Войти скрытым?



 Правила раздела Новые сообщения раздела  


 

 Дешёвый детектив / The Cheap Detective (1978), Комедия,детективная пародия;Реж-Р.Мур;Роли-П.Фальк,Энн-Маргрет
SanSan48
  №1 Отправлено: 28.03.2019 - 13:40


"Спартак" - ЧЕМПИОН!!!

Группа: Пользователи
Регистрация: 28.12.2009
Сообщений: 2076
Обитает:
Последний раз был:
cегодня в 16:09




Дешёвый детектив / The Cheap Detective (1978)



Предыдущие раздачи:
19.08.2012 (DVDrip)
4.11.2008 (DVDrip)

Жанр: Комедия, детективная пародия
Выпущено: США, Columbia Pictures Corporation, EMI Films Ltd., Rastar Pictures
Год выпуска: 1978
Премьера (мир): 9 июня 1978 (США), 27 июля 1978 (Финляндия), 26 августа 1978 (Япония)
Сценарист: Нил Саймон / Neil Simon
Оператор: Джон А. Алонсо / John A. Alonzo
Композитор: Патрик Уильямс / Patrick Williams
Художники: Роберт Лутхардт / Robert Luthardt, Филлип Беннетт / Phillip Bennett, Теони В. Элдридж / Theoni V. Aldredge, Чарльз Пирс / Charles Pierce
Монтажёры: Сидни Левин / Sidney Levin, Майкл А. Стивенсон / Michael A. Stevenson

Режиссёр: Роберт Мур / Robert Moore

В ролях:
Питер Фальк / Peter Falk ... Lou Peckinpaugh
Энн-Маргрет / Ann-Margret ... Jezebel Dezire
Айлин Бреннан / Eileen Brennan ... Betty DeBoop
Сид Сизар / Sid Caesar ... Ezra Dezire
Стокард Ченнинг / Stockard Channing ... Bess
Джеймс Коко / James Coco ... Marcel
Дом ДеЛуис / Dom DeLuise ... Pepe Damascus
Луиза Флетчер / Louise Fletcher ... Marlene DuChard
Джон Хаусмен / John Houseman ... Jasper Blubber
Мэдлин Кан / Madeline Kahn ... Mrs. Montenegro
Фернандо Ламас / Fernando Lamas ... Paul DuChard
Марша Мэйсон / Marsha Mason ... Georgia Merkle
Фил Силверс / Phil Silvers ... Hoppy
Эйб Вигода / Abe Vigoda ... Sgt. Rizzuto
Пол Уильямс / Paul Williams ... Boy
Никол Уильямсон / Nicol Williamson ... Colonel Schlissel
Вик Тэйбэк / Vic Tayback ... Lt. DiMaggio

Описание: Пародия на детективную классику.
О частном сыщике и международных интригах. Действие происходит в 1940 году в Сан-Франциско. Частный детектив Лу Пекинпа (Питер Фальк) обвиняется в убийстве своего партнера, чья жена (Марша Мэйсон) была его любовницей. Лейтенант ДиМаджио (Вик Тэйбэк) и его помощники ведут смехотворное расследование, а тут в кабинете Лу объявляется некая миссис Монтенегро (Мэдлин Кан). Вместе с тремя своими спутниками (Джон Хаусмен, Пол Уильямс и Дом ДеЛуис) она ищет древние сокровища - дюжину бриллиантовых яиц …
Уморительно смешной и теплый фильм. (Иванов М.)

Дополнительная информация:
Релиз:

Исходник найден в сети.

Автор рипа: pmv

Большое спасибо за:
- русскую аудиодорожку (https://) - IVH
- синхронизацию звуковой дорожки - pmv

IMDb = 6,5/10 (3 586) - https://www.imdb.com/title/tt0077321/
Кинопоиск = 6.659 (287) - https://www.kinopoisk.ru/film/1629/

ВНИМАНИЕ!!! РИП ФОРМАТА mkv (кодек H.264) ВОСПРОИЗВОДИТСЯ НЕ НА ВСЕХ БЫТОВЫХ ВИДЕОПЛЕЕРАХ!!!

Параметры файла:
Название: The Cheap Detective (1978, rus_MVO+eng+eng_sub).mkv
Качество видео: HDRip-AVC
Формат видео: MKV
Размер: 1,45 ГБ (1 560 330 793 байт)
Продолжительность: 01:32:13
Перевод: Профессиональный (многоголосый закадровый)
Субтитры: английские
Оригинальная аудиодорожка: английский
Видео: AVC (H264), 1152x488 (2.35:1), 23.976 fps, 1870 kb/s, 0.139 Bits/Pixel
Аудио #1: AC3, 48 KHz, stereo (2 ch), 192 kbps – русский
Аудио #2: AC3, 48 KHz, stereo (2 ch), 192 kbps - английский



General
Unique ID : 200127572727953577518170060611689683335 (0x968F2B22E8E33C6958D79B295A049987)
Complete name : D:\torrents\The Cheap Detective (1978, rus_MVO+eng+eng_sub).mkv
Format : Matroska
Format version : Version 4 / Version 2
File size : 1.45 GiB
Duration : 1 h 32 min
Overall bit rate : 2 256 kb/s
Encoded date : UTC 2019-03-27 09:36:22
Writing application : mkvmerge v32.0.0 ('Astral Progressions') 64-bit
Writing library : libebml v1.3.7 + libmatroska v1.5.0

Video
ID : 1
Format : AVC
Format/Info : Advanced Video Codec
Format profile : High@L4.1
Format settings, CABAC : Yes
Format settings, RefFrames : 14 frames
Codec ID : V_MPEG4/ISO/AVC
Duration : 1 h 32 min
Bit rate : 1 870 kb/s
Width : 1 152 pixels
Height : 488 pixels
Display aspect ratio : 2.35:1
Frame rate mode : Constant
Frame rate : 23.976 (23976/1000) FPS
Color space : YUV
Chroma subsampling : 4:2:0
Bit depth : 8 bits
Scan type : Progressive
Bits/(Pixel*Frame) : 0.139
Stream size : 1.20 GiB (83%)
Writing library : x264 core 146 r2538 121396c
Encoding settings : cabac=1 / ref=14 / deblock=1:0:0 / analyse=0x3:0x133 / me=umh / subme=10 / psy=1 / psy_rd=1.00:0.00 / mixed_ref=1 / me_range=24 / chroma_me=1 / trellis=2 / 8x8dct=1 / cqm=0 / deadzone=21,11 / fast_pskip=1 / chroma_qp_offset=-2 / threads=48 / lookahead_threads=3 / sliced_threads=0 / nr=0 / decimate=1 / interlaced=0 / bluray_compat=0 / constrained_intra=0 / bframes=8 / b_pyramid=2 / b_adapt=2 / b_bias=0 / direct=3 / weightb=1 / open_gop=0 / weightp=2 / keyint=250 / keyint_min=23 / scenecut=40 / intra_refresh=0 / rc_lookahead=60 / rc=2pass / mbtree=1 / bitrate=1870 / ratetol=1.0 / qcomp=0.60 / qpmin=0 / qpmax=69 / qpstep=4 / cplxblur=20.0 / qblur=0.5 / ip_ratio=1.40 / aq=1:1.00
Language : English
Default : Yes
Forced : No

Audio #1
ID : 2
Format : AC-3
Format/Info : Audio Coding 3
Format settings, Endianness : Big
Codec ID : A_AC3
Duration : 1 h 32 min
Bit rate mode : Constant
Bit rate : 192 kb/s
Channel(s) : 2 channels
Channel positions : Front: L R
Sampling rate : 48.0 kHz
Frame rate : 31.250 FPS (1536 SPF)
Bit depth : 16 bits
Compression mode : Lossy
Stream size : 127 MiB (9%)
Language : Russian
Service kind : Complete Main
Default : Yes
Forced : No

Audio #2
ID : 3
Format : AC-3
Format/Info : Audio Coding 3
Format settings, Endianness : Big
Codec ID : A_AC3
Duration : 1 h 32 min
Bit rate mode : Constant
Bit rate : 192 kb/s
Channel(s) : 2 channels
Channel positions : Front: L R
Sampling rate : 48.0 kHz
Frame rate : 31.250 FPS (1536 SPF)
Bit depth : 16 bits
Compression mode : Lossy
Stream size : 127 MiB (9%)
Language : English
Service kind : Complete Main
Default : No
Forced : No

Text
ID : 4
Format : UTF-8
Codec ID : S_TEXT/UTF8
Codec ID/Info : UTF-8 Plain Text
Duration : 1 h 30 min
Bit rate : 77 b/s
Count of elements : 1817
Stream size : 51.3 KiB (0%)
Language : English
Default : No
Forced : No








МОИ РАЗДАЧИ НА ФЕНИКСе: ЗДЕСЬ




Это сообщение отредактировал SanSan48 - 28.03.2019 - 13:51


--------------------
"Спартак" - ЧЕМПИОН!!!

Скрыть подпись
kyo
№2 Отправлено: 28.03.2019 - 14:45


Живёт здесь

Группа: Потребители
Регистрация: 21.07.2007
Сообщений: 2291
Обитает:
Последний раз был:
cегодня в 14:17




Архивы в порядке, спасибо !
Top
SanSan48
№3 Отправлено: 28.03.2019 - 16:00


"Спартак" - ЧЕМПИОН!!!

Группа: Пользователи
Регистрация: 28.12.2009
Сообщений: 2076
Обитает:
Последний раз был:
cегодня в 16:09




Цитата
( kyo @ 28.03.2019 - 14:45)
Архивы в порядке, спасибо !

kyo, Благодарю за сообщение!

Приятного всем просмотра!


--------------------
"Спартак" - ЧЕМПИОН!!!

Скрыть подпись
Top
wider2
№4 Отправлено: 29.03.2019 - 17:29


Живёт здесь

Группа: Потребители
Регистрация: 17.10.2006
Сообщений: 1224
Обитает:
Последний раз был:
cегодня в 16:38




Я вспомнил
что в тех Палестинах , в теже времена был снят подобный же по стилю и детективного сюжету фильм
Соглядатай / Peeper (Питер Хайэмс / Peter Hyams) [1975, США]

rutracker org/forum/viewtopic.php?t=2972836
Top
Dushechka_2017
№5 Отправлено: 31.03.2019 - 12:07


Прохожий

Группа: Потребители
Регистрация: 27.12.2017
Сообщений: 44
Обитает:
Последний раз был:
cегодня в 15:18




Довольно забавная пародия на культовую "Касабланку" Кёртица.
Top
1 человек просматривает эту тему (1 гость)
« Предыдущая тема | Зарубежные фильмы | Следующая тема »


 



[Script Execution time: 0,0528]   [24 queries used]   [GZIP enabled]