Заходят многие - остаются лучшие!
Здравствуйте Гость ( Вход | Регистрация ) Выслать повторно письмо для активации
Вход
Ваше имя Пароль Забыли пароль?
Запомнить Вас?
Войти скрытым?



 Правила раздела Новые сообщения раздела  


 

 Прерванные воспоминания / Yarımçıq xatirələr / Incomplete Memories (2015), Военный,драма;Реж.-Э.Джафаров;Роли-М.Каминский,Б.Вагифоглу,Г.Цаава
SanSan48
  №1 Отправлено: 29.03.2019 - 09:13


"Спартак" - ЧЕМПИОН!!!

Группа: Пользователи
Регистрация: 28.12.2009
Сообщений: 2043
Обитает:
Последний раз был:
вчера в 19:35




Прерванные воспоминания / Yarımçıq xatirələr / Incomplete Memories (2015)



Жанр: История, военный, биография, драма
Выпущено: Азербайджан, Белоруссия, Azerbaijanfilm
Год выпуска: 2015
Премьера (мир): 9 мая 2015 (Азербайджан)
Сценарист: Константин Воробьев, Явер Рзаев / Yaver Rzayev
Оператор: Надир Мехтиев / Nadir Mehdiyev
Композитор: Полад Бюль-Бюль-оглы
Художники: Рафик Насиров, Вадим Шафранский
Монтажёры: Эльщад Рагимов

Режиссёр: Эльхан Джафаров / Elkhan Jafarov

В ролях:
Бахруз Вагифоглу / Bakhruz Vagifoglu ... Азер в молодости
Михаил Каминский ... Иван Иванов, капитан
Георгий Цаава ... Артавазд
Гюльназ Гурбанова ... Жанна
Андрей Милюхин ... Станкевич
Зураб Ниджарадзе ... Рантик
Вероника Пляшкевич ... Надя
Шамиль Сулейманов ... Самед
Александр Павлов ... Сергей
Иван Мацкевич ... Полковник
Карим Покачаков ... Якут
Рза Рзаев / Rza Rzayev ... Джаваншир
Гурбан Исмайлов / Gurbam Ismailov ... Азер Ибрагимов в старости
Ровшан Агаев / Rovshan Agayev ...
Анатолий Гурьев ...
Отар Микеладзе-Мацаберидзе / Otar Mikeladze-Matsaberidze

Описание: История о солдате, который в 1941 году героически оборонял Брестскую крепость от фашистов и через 50 лет встал на защиту родного Нагорного Карабаха от армянских оккупантов. (kinopoisk.ru)

Дополнительная информация:
Релиз:

Исходник найден в сети.

Автор рипа: pmv

* Картина основана на реальных событиях.

Главный герой фильма - азербайджанец, учитель русского языка и снайпер в годы войны, который становится жертвой во время трагических событий в Карабахе в 90-х годах. Офицер, отдавший приказ об убийстве ветерана, находит его медали, фотографии и тетрадь, в котором ветеран вспоминает свою молодость. Как оказалось, дед этого офицера и ветеран вместе воевали против фашистов...

В фильме параллельно развиваются две сюжетные линии. Это Великая Отечественная война и трагический эпизод из истории уже современного Азербайджана - война в Карабахе. Для героя, защитника Брестской крепости, война началась в 1941 году. Он воевал, затем попал в концлагерь в Дубице, откуда сбежал к партизанам. Основным лейтмотивом фильма проходит дружба и взаимовыручка трех солдат - азербайджанца, русского и армянина, которые в годы Великой Отечественной войны вместе боролись с фашистскими оккупантами. Кадры из прошлого перекликаются с событиями 90-х годов в Карабахе. Главный герой фильма задается вопросом - как могло получиться, что народы, которые бок о бок сражались против фашизма, перенесли все тяготы и лишения, спасали друг друга от смерти и делились последним куском хлеба, вдруг стали врагами?

Фильм снят на русском языке, продублирован на азербайджанском, будет также переведен на несколько языков и представлен на международных фестивалях.
(Ilham Jafarov, kinopoisk.ru)

IMDb = 8,4/10 (37) - https://www.imdb.com/title/tt6157292/
Кинопоиск = - (66) - https://www.kinopoisk.ru/film/963373/

ВНИМАНИЕ!!! РИП ФОРМАТА mkv (кодек H.264) ВОСПРОИЗВОДИТСЯ НЕ НА ВСЕХ БЫТОВЫХ ВИДЕОПЛЕЕРАХ!!!

Параметры файла:
Название: Прерванные воспоминания (2015).mkv
Качество видео: WEB-DLRip-AVC
Формат видео: MKV
Размер: 1,46 ГБ (1 575 904 993 байт)
Продолжительность: 01:53:35
Субтитры: встроенные (на не русскую речь)
Видео: AVC (H264), 1152x512 (2.25:1), 25 fps, 1690 kb/s, 0.115 Bits/Pixel
Аудио: AC3, 44.1 KHz KHz, stereo (2 ch), 192 kbps – русский



General
Unique ID : 323281924116312466856481034378837571447 (0xF335D574CCBCC19F78636AFD58FD3777)
Complete name : D:\torrents\Прерванные воспоминания (2015).mkv
Format : Matroska
Format version : Version 4 / Version 2
File size : 1.47 GiB
Duration : 1 h 51 min
Overall bit rate : 1 883 kb/s
Encoded date : UTC 2019-03-28 11:35:26
Writing application : mkvmerge v32.0.0 ('Astral Progressions') 64-bit
Writing library : libebml v1.3.7 + libmatroska v1.5.0

Video
ID : 1
Format : AVC
Format/Info : Advanced Video Codec
Format profile : High@L4.1
Format settings, CABAC : Yes
Format settings, RefFrames : 14 frames
Codec ID : V_MPEG4/ISO/AVC
Duration : 1 h 51 min
Bit rate : 1 690 kb/s
Width : 1 152 pixels
Height : 512 pixels
Display aspect ratio : 2.25:1
Frame rate mode : Constant
Frame rate : 25.000 FPS
Color space : YUV
Chroma subsampling : 4:2:0
Bit depth : 8 bits
Scan type : Progressive
Bits/(Pixel*Frame) : 0.115
Stream size : 1.32 GiB (90%)
Writing library : x264 core 146 r2538 121396c
Encoding settings : cabac=1 / ref=14 / deblock=1:0:0 / analyse=0x3:0x133 / me=umh / subme=10 / psy=1 / psy_rd=1.00:0.00 / mixed_ref=1 / me_range=24 / chroma_me=1 / trellis=2 / 8x8dct=1 / cqm=0 / deadzone=21,11 / fast_pskip=1 / chroma_qp_offset=-2 / threads=48 / lookahead_threads=4 / sliced_threads=0 / nr=0 / decimate=1 / interlaced=0 / bluray_compat=0 / constrained_intra=0 / bframes=8 / b_pyramid=2 / b_adapt=2 / b_bias=0 / direct=3 / weightb=1 / open_gop=0 / weightp=2 / keyint=250 / keyint_min=25 / scenecut=40 / intra_refresh=0 / rc_lookahead=60 / rc=2pass / mbtree=1 / bitrate=1690 / ratetol=1.0 / qcomp=0.60 / qpmin=0 / qpmax=69 / qpstep=4 / cplxblur=20.0 / qblur=0.5 / ip_ratio=1.40 / aq=1:1.00
Language : Azerbaijani
Default : Yes
Forced : No

Audio
ID : 2
Format : AC-3
Format/Info : Audio Coding 3
Format settings, Endianness : Big
Codec ID : A_AC3
Duration : 1 h 51 min
Bit rate mode : Constant
Bit rate : 192 kb/s
Channel(s) : 2 channels
Channel positions : Front: L R
Sampling rate : 44.1 kHz
Frame rate : 28.711 FPS (1536 SPF)
Bit depth : 16 bits
Compression mode : Lossy
Stream size : 153 MiB (10%)
Language : Russian
Service kind : Complete Main
Default : Yes
Forced : No








МОИ РАЗДАЧИ НА ФЕНИКСе: ЗДЕСЬ




Это сообщение отредактировал SanSan48 - 29.03.2019 - 09:15


--------------------
"Спартак" - ЧЕМПИОН!!!

Скрыть подпись


AlexeyTuzh
№2 Отправлено: 29.03.2019 - 10:01


Вечный думатель

Группа: Администраторы
Регистрация: 15.07.2008
Сообщений: 5295
Обитает:
Последний раз был:
вчера в 18:27




Спасибо! С архивами всё отлично!
Top
SanSan48
№3 Отправлено: 29.03.2019 - 10:56


"Спартак" - ЧЕМПИОН!!!

Группа: Пользователи
Регистрация: 28.12.2009
Сообщений: 2043
Обитает:
Последний раз был:
вчера в 19:35




Цитата
( AlexeyTuzh @ 29.03.2019 - 10:01)
Спасибо! С архивами всё отлично!

AlexeyTuzh, Благодарю за сообщение!

Приятного всем просмотра!


--------------------
"Спартак" - ЧЕМПИОН!!!

Скрыть подпись
Top
1 человек просматривает эту тему (1 гость)
« Предыдущая тема | Зарубежные фильмы | Следующая тема »


 



[Script Execution time: 0,0211]   [24 queries used]   [GZIP enabled]