Заходят многие - остаются лучшие!
Здравствуйте Гость ( Вход | Регистрация ) Выслать повторно письмо для активации
Вход
Ваше имя Пароль Забыли пароль?
Запомнить Вас?
Войти скрытым?



 Правила раздела Новые сообщения раздела  


 

 Необузданные / The Lusty Men (1952), Сьюзен Хэйуорд, Роберт Митчем / драма
surzhoks
  №1 Отправлено: 2.06.2018 - 15:58


Живёт здесь

Группа: Аксакалы
Регистрация: 17.03.2008
Сообщений: 1064
Обитает:
Последний раз был:
4.06.2018 - 19:46




Необузданные / The Lusty Men


Страна: США
Студия: Wald / Krasna Productions
Жанр: драма
Год выпуска: 1952
Продолжительность: 01:52:59
Режиссер: Николас Рэй / Nicholas Ray
Композитор: Рой Уэбб / Roy Webb

В ролях:
Сьюзен Хэйуорд / Susan Hayward ... Louise Merritt
Роберт Митчем / Robert Mitchum ... Jeff McCloud
Артур Кеннеди / Arthur Kennedy ... Wes Merritt
Артур Ханникат / Arthur Hunnicutt ... Booker Davis
Фрэнк Фэйлен / Frank Faylen ... Al Dawson
Уолтер Кой / Walter Coy ... Buster Burgess
Кэрол Наджент / Carol Nugent ... Rusty Davis
Мария Харт / Maria Hart ... Rosemary Maddox
Лорна Тэйер / Lorna Thayer ... Grace Burgess
Берт Мустин / Burt Mustin ... Jeremiah Watrus

Описание: Бывшая звезда родео Джефф МакКлауд получает тяжелую травму на выступлении и вынужден завершить карьеру. Без определенной цели, просто по зову сердца, он возвращается туда, где прошло его детство, в родной дом который он хотел однажды выкупить. Но немалые деньги, выигранные им за 18 лет в родео, растрачены. Копить, смотреть в будущее — не в его характере. Живущий по соседству ковбой Уэс Мерритт, женатый уже третий год, наслышан о его подвигах и устраивает его на ранчо, где работает сам. Уэс и его жена Луиза планируют купить собственное ранчо, но для этого им нужно копить деньги еще много лет. Уэса манят быстрые выигрыши в родео, и он просит Джеффа ввести его в этот спорт...

Доп. информация:
Огромное спасибо всем причастным к релизу:
рип - tеko,
перевод фильма- giveaway,
озвучивание фильма (по русским субтитрам) - Матвей Кенс,
работа со звуком - AlekceyR76,
финансовая поддержка озвучивания фильма:
Магда, Lafajet, Jasenka, yanaelisa, surzhoks, Ugo927, елена 22, voostorg, sindzi, борюська, cementit, Mc-Nabbs, HippopotamusIV

Архивы созданы RAR-архиватором с добавлением 3% на восстановление и снабжены sfv-проверочником.
Просьба к первому скачавшему отписаться о сохранности архивов на источнике раздачи.

Раздача рассчитана на 2 месяца. На просмотр линка и скачивание 5 дней!
В случае если вы встали в очередь, а затем отказываетесь от скачивания без объяснения причин, возможен отказ в последующих моих раздачах.



Полное имя :The Lusty Men 1952.avi
Формат : AVI
Формат/Информация : Audio Video Interleave
Размер файла : 1,46 Гбайт
Продолжительность : 1 ч. 52 м.
Общий поток : 1844 Кбит/сек
Программа кодирования : VirtualDubMod 1.5.10.3 | www.virtualdub-fr.org || (build 2550/release)
Библиотека кодирования : VirtualDubMod build 2550/release

Видео
Идентификатор : 0
Формат : MPEG-4 Visual
Профиль формата : Advanced Simple@L5
Параметр BVOP формата : 1
Параметр QPel формата : Нет
Параметр GMC формата : Без точки перехода
Параметр матрицы формата : Выборочная
Идентификатор кодека : XVID
Идентификатор кодека/Подсказка : XviD
Продолжительность : 1 ч. 52 м.
Битрейт : 1643 Кбит/сек
Ширина : 656 пикселей
Высота : 480 пикселей
Соотношение сторон : 4:3
Частота кадров : 23,976 кадра/сек
Цветовое пространство : YUV
Субдискретизация насыщенности : 4:2:0
Битовая глубина : 8 бит
Тип развёртки : Прогрессивная
Метод сжатия : С потерями
Бит/(Пиксели*Кадры) : 0.218
Размер потока : 1,30 Гбайт (89%)
Библиотека кодирования : XviD 73

Аудио
Идентификатор : 1
Формат : AC-3
Формат/Информация : Audio Coding 3
Расширение режима : CM (complete main)
Параметр Endianness формата : Big
Идентификатор кодека : 2000
Продолжительность : 1 ч. 52 м.
Вид битрейта : Постоянный
Битрейт : 192 Кбит/сек
Каналы : 2 канала
Расположение каналов : Front: L R
Частота : 48,0 КГц
Битовая глубина : 16 бит
Метод сжатия : С потерями
Размер потока : 155 Мбайт (10%)
Выравнивание : Разделение по промежуткам
Продолжительность промежутка : 42 мс. (1,00 видеокадр)
Время предзагрузки промежутка : 500 мс.




Это сообщение отредактировал surzhoks - 2.06.2018 - 16:08


Oll
№2 Отправлено: 3.06.2018 - 01:41


Завсегдатай

Группа: Пользователи
Регистрация: 11.03.2009
Сообщений: 335
Обитает:
Последний раз был:
3.06.2018 - 01:43




Всё, как всегда, OK!
Спасибо!"
Top
1 человек просматривает эту тему (1 гость)
« Предыдущая тема | Зарубежные фильмы | Следующая тема »


 



[Script Execution time: 0,0300]   [23 queries used]   [GZIP enabled]