Заходят многие - остаются лучшие!
Здравствуйте Гость ( Вход | Регистрация ) Выслать повторно письмо для активации
Вход
Ваше имя Пароль Забыли пароль?
Запомнить Вас?
Войти скрытым?



 Правила раздела Новые сообщения раздела  


 

 Слишком поздний блюз / Too Late Blues (1961), драма/ режиссер Джон Кассаветис
surzhoks
  №1 Отправлено: 10.10.2018 - 20:41


Живёт здесь

Группа: Аксакалы
Регистрация: 17.03.2008
Сообщений: 1096
Обитает:
Последний раз был:
вчера в 21:02




Слишком поздний блюз / Too Late Blues


Страна: США
Студия: Paramount Pictures
Жанр: драма
Год выпуска: 1961
Продолжительность: 01:40:31
Режиссер: Джон Кассаветис / John Cassavetes
Композитор: Дэвид Рэксин / David Raksin
В ролях:
Бобби Дарин / Bobby Darin ... John 'Ghost' Wakefield,
Стелла Стивенс / Stella Stevens ... Jess Polanski,
Эверетт Чэмберс / Everett Chambers ... Benny Flowers,
Ник Дэннис / Nick Dennis ... Nick Bubalinas,
Винс Эдвардс / Vince Edwards ... Tommy Sheehan (as Vincent Edwards),
Вэл Эйвери / Val Avery ... Milt Frielobe,
Мэрлин КларкMarilyn Clark ... Countess,
Джеймс Джойс / / James Joyce ... Reno Vitelli,
Руперт Кросс / Rupert Crosse ... Baby Jackson,
Марио Галло / Mario Gallo ... Recording Engineer

Описание: Джон по прозвищу "Призрак" — принципиальный музыкант, который предпочитает играть блюз в парке для птиц, нежели идти на творческий компромисс. Однако когда Джон встречает прекрасную певицу Джесс Полански и влюбляется в неё, всё меняется: Джесс встаёт между блюзменом и его товарищами по группе, и Джон забывает о своих иллюзиях, отправляясь на поиски славы.

Доп. информация:
Огромное спасибо всем причастным к релизу:
перевод- larisa_k,
озвучивание фильма- Nastia

Архивы созданы RAR-архиватором с добавлением 3% на восстановление и снабжены sfv-проверочником.
Просьба к первому скачавшему отписаться о сохранности архивов на источнике раздачи.

Раздача рассчитана на 2 месяца. На просмотр линка и скачивание 5 дней!
В случае если вы встали в очередь, а затем отказываетесь от скачивания без объяснения причин, возможен отказ в последующих моих раздачах.



Полное имя :Too.Late.Blues.1961.BDRip.avi
Формат : AVI
Формат/Информация : Audio Video Interleave
Размер файла : 1,46 Гбайт
Продолжительность : 1 ч. 40 м.
Общий поток : 2076 Кбит/сек
Название фильма : Too.Late.Blues.1961.BDRip
Программа кодирования : VirtualDubMod 1.5.10.3 | www.virtualdub-fr.org || (build 2550/release)
Правообладатель : RuTracker

Видео
Идентификатор : 0
Формат : MPEG-4 Visual
Профиль формата : Advanced Simple@L5
Параметр BVOP формата : 1
Параметр QPel формата : Нет
Параметр GMC формата : Без точки перехода
Параметр матрицы формата : Выборочная
Идентификатор кодека : XVID
Идентификатор кодека/Подсказка : XviD
Продолжительность : 1 ч. 40 м.
Битрейт : 1678 Кбит/сек
Ширина : 704 пикселя
Высота : 400 пикселей
Соотношение сторон : 16:9
Частота кадров : 23,976 кадра/сек
Цветовое пространство : YUV
Субдискретизация насыщенности : 4:2:0
Битовая глубина : 8 бит
Тип развёртки : Прогрессивная
Метод сжатия : С потерями
Бит/(Пиксели*Кадры) : 0.249
Размер потока : 1,18 Гбайт (81%)
Библиотека кодирования : XviD 67

Аудио #1
Идентификатор : 1
Формат : AC-3
Формат/Информация : Audio Coding 3
Расширение режима : CM (complete main)
Параметр Endianness формата : Big
Идентификатор кодека : 2000
Продолжительность : 1 ч. 40 м.
Вид битрейта : Постоянный
Битрейт : 192 Кбит/сек
Каналы : 1 канал
Расположение каналов : Front: C
Частота : 48,0 КГц
Битовая глубина : 16 бит
Метод сжатия : С потерями
Размер потока : 138 Мбайт (9%)
Выравнивание : Разделение по промежуткам
Продолжительность промежутка : 42 мс. (1,00 видеокадр)
Время предзагрузки промежутка : 500 мс.

Аудио #2
Идентификатор : 2
Формат : AC-3
Формат/Информация : Audio Coding 3
Расширение режима : CM (complete main)
Параметр Endianness формата : Big
Идентификатор кодека : 2000
Продолжительность : 1 ч. 40 м.
Вид битрейта : Постоянный
Битрейт : 192 Кбит/сек
Каналы : 1 канал
Расположение каналов : Front: C
Частота : 48,0 КГц
Битовая глубина : 16 бит
Метод сжатия : С потерями
Размер потока : 138 Мбайт (9%)
Выравнивание : Разделение по промежуткам
Продолжительность промежутка : 42 мс. (1,00 видеокадр)
Время предзагрузки промежутка : 500 мс.




kyo
№2 Отправлено: 11.10.2018 - 04:21


Живёт здесь

Группа: Потребители
Регистрация: 21.07.2007
Сообщений: 2015
Обитает:
Последний раз был:
вчера в 20:38




Архивы в порядке, спасибо !
Top
Al1
№3 Отправлено: 15.10.2018 - 08:12


Попрошу без ярлыков!

Группа: Потребители
Регистрация: 12.03.2010
Сообщений: 437
Последний раз был:
вчера в 07:41




Спасибо за релиз, особенно - за сохранение оригинальной дороги с субтитрами!
Но, не в силах унять озабоченность чистотой рядов, спрошу: разве Кассаветис на заслуживает помещения в раздел "Элитарное кино"? Этот раздел и так не слишком богат событиями, чтобы обделять его "законными" релизами.
Top
1 человек просматривает эту тему (1 гость)
« Предыдущая тема | Зарубежные фильмы | Следующая тема »


 



[Script Execution time: 0,0254]   [23 queries used]   [GZIP enabled]