Заходят многие - остаются лучшие!
Здравствуйте Гость ( Вход | Регистрация ) Выслать повторно письмо для активации
Вход
Ваше имя Пароль Забыли пароль?
Запомнить Вас?
Войти скрытым?



Новые сообщения раздела  

 

 Моё cоветское Детство (2014) TVRip, Воспоминания детства
bornik
  №1 Отправлено: 3.01.2017 - 22:15


Воспоминания - это богатства старости.

Группа: Модераторы
Регистрация: 18.08.2008
Сообщений: 844
Обитает:
Последний раз был:
cегодня в 19:24




Моё cоветское Детство (2014)



Год выпуска: 2014
Жанр: Документальный
Выпущено: Россия, Телекомпания - «5 КАНАЛ»
Продолжительность: 01:38:55

Режиссёр: Евгения Гончар
Сценарист: Алексей Васильев, Яна Радзиевская
Оператор: Виктор Гончар
Оригинальная музыка: Максим Алексеев

Ведущий: Кирилл Набутов

Участники: Николай Басков, Михаил Боярский, Алексей Кортнев, дуэт Сергей Любавин и Татьяна Буланова, Тимур Родригез, Ольга Шелест, Антон Комолов и другие

Описание: Телеведущий Дмитрий Губерниев приглашает вспомнить, какой была она - жизнь "нормального" советского ребёнка и школьника.
В каких колясках нянчили советских малышей? Как "первоклашек" отправляли в школу и во что одевали детей того времени? Как почетно и долгожданно было стать пионером? А незабываемые смены в пионерских лагерях, ставшие для многих самым ярким детским воспоминанием? Или игры, в которые играли в каждом нашем дворе? Для кого-то это путешествие в прошлое станет приятным напоминанием о том, как мы жили тогда. А те, кто уже не застал заветов Ильича и не знает, каким редким лакомством была жевательная резинка, смогут открыть для себя много интересного из жизни своей страны.









General
Complete name : C:\Cinema\Моё советское...\Моё cоветское Детство (2014)\MoSovDet.avi
Format : AVI
Format/Info : Audio Video Interleave
File size : 1.48 GiB
Duration : 1h 38mn
Overall bit rate : 2 140 Kbps
Writing application : VirtualDubMod 1.5.10.2 (build 2540/release)
Writing library : VirtualDubMod build 2540/release

Video
ID : 0
Format : MPEG-4 Visual
Format profile : Advanced Simple@L5
Format settings, BVOP : 2
Format settings, QPel : No
Format settings, GMC : No warppoints
Format settings, Matrix : Default (H.263)
Muxing mode : Packed bitstream
Codec ID : XVID
Codec ID/Hint : XviD
Duration : 1h 38mn
Bit rate : 2 002 Kbps
Width : 720 pixels
Height : 400 pixels
Display aspect ratio : 16:9
Frame rate : 25.000 fps
Color space : YUV
Chroma subsampling : 4:2:0
Bit depth : 8 bits
Scan type : Progressive
Compression mode : Lossy
Bits/(Pixel*Frame) : 0.278
Stream size : 1.38 GiB (94%)
Writing library : XviD 65

Audio
ID : 1
Format : MPEG Audio
Format version : Version 1
Format profile : Layer 3
Mode : Joint stereo
Mode extension : MS Stereo
Codec ID : 55
Codec ID/Hint : MP3
Duration : 1h 38mn
Bit rate mode : Constant
Bit rate : 128 Kbps
Channel(s) : 2 channels
Sampling rate : 48.0 KHz
Compression mode : Lossy
Stream size : 90.6 MiB (6%)
Alignment : Aligned on interleaves
Interleave, duration : 40 ms (1.00 video frame)
Interleave, preload duration : 504 ms
Writing library : LAME3.98r
Encoding settings : -m j -V 4 -q 3 -lowpass 17 -b 128


Последующая раздача "Моя cоветская Юность" (2015)
Последующая раздача "Моя cоветская Молодость" (2016)
Последующая раздача "Мой советский Новый год" (2017)

=================================

Исходником послужил релиз DVB, найденный на просторах инета!

Архивы созданы RAR-архиватором с добавлением 3% на восстановление и снабжены sfv-проверочником.
Просьба к первому скачавшему отписаться о сохранности архивов на источнике раздачи.

Раздача рассчитана на месяц.

ПРИЯТНОГО ВСЕМ ПРОСМОТРА !!!




--------------------
Безоблачная старость – это миф,
Поскольку наша память – ширь морская,
И к ночи начинается прилив,
Со дна обломки прошлого таская.
Игорь Губерман

Скрыть подпись


vjub58
№2 Отправлено: 3.01.2017 - 23:55


Практикующий эсквайр

Группа: Аксакалы
Регистрация: 6.12.2005
Сообщений: 4466
Обитает:
Последний раз был:
cегодня в 21:39




Спасибо, все ОК. pozdrav_buket.gif
Top
bornik
№3 Отправлено: 4.01.2017 - 05:48


Воспоминания - это богатства старости.

Группа: Модераторы
Регистрация: 18.08.2008
Сообщений: 844
Обитает:
Последний раз был:
cегодня в 19:24




Цитата
( vjub58 @ 3.01.2017 - 23:55)
Спасибо, все ОК. pozdrav_buket.gif

И Вам, vjub58, спасибо за добрую весть. happy_fly.gif


--------------------
Безоблачная старость – это миф,
Поскольку наша память – ширь морская,
И к ночи начинается прилив,
Со дна обломки прошлого таская.
Игорь Губерман

Скрыть подпись
Top
bornik
№4 Отправлено: 4.03.2017 - 02:29


Воспоминания - это богатства старости.

Группа: Модераторы
Регистрация: 18.08.2008
Сообщений: 844
Обитает:
Последний раз был:
cегодня в 19:24




Всем спасибо.
Очередь закрыта. Если есть желающие - пишите в ПМ. wink2.gif


--------------------
Безоблачная старость – это миф,
Поскольку наша память – ширь морская,
И к ночи начинается прилив,
Со дна обломки прошлого таская.
Игорь Губерман

Скрыть подпись
Top
1 человек просматривает эту тему (1 гость)
« Предыдущая тема | Летопись времён и идей | Следующая тема »


 



[Script Execution time: 0,0476]   [23 queries used]   [GZIP enabled]