Заходят многие - остаются лучшие!
Здравствуйте Гость ( Вход | Регистрация ) Выслать повторно письмо для активации
Вход
Ваше имя Пароль Забыли пароль?
Запомнить Вас?
Войти скрытым?



Новые сообщения раздела  

 

 Таврический дворец (2012), RTG Production Studios
bornik
  №1 Отправлено: 6.05.2018 - 15:30


Воспоминания - это богатства старости.

Группа: Модераторы
Регистрация: 18.08.2008
Сообщений: 1036
Обитает:
Последний раз был:
вчера в 16:49




Таврический дворец (2012)



«Таврический дворец» - петербургская резиденция князя Григория Потёмкина-Таврического. Возведён в стиле классицизма в период с 1783 по 1789 год по проекту архитектора И. Е. Старова.
Является объектом культурного наследия народов РФ федерального значения.

Оригинальное название: Таврический дворец
Год выпуска: 2012
Жанр: Документальный, познавательный
Выпущено: Россия, , RTG Production Studios
Продолжительность: 00:34:37
Субтитры: Русские (мои)


Режиссёр: Сергей Ермоленко / Sergey Yermolenko
Сценарист: Сергей Зорькин / Sergey Zorkin


Ведущий: Игорь Максименко / Igor Maximenko


Описание: Таврический дворец - символ триумфа светлейшего князя Григория Потёмкина, фаворита императрицы Екатерины II. Он был единственным человеком, которому государыня действительно доверяла. И не только своё сердце, но и дела Российской империи. Потёмкина называли вторым человеком в государстве, некоронованным императором, его заслуги перед Россией велики. И это монументальное здание, как бы стремясь соответствовать личности Светлейшего, стало эталоном классической архитектуры в России на рубеже XVIII-XIX веков. Во многих губерниях строили усадьбы с таким же шестиколонным портиком и треугольным фронтоном. А богатство внутреннего убранства дворца вызывало зависть даже у избалованных роскошью аристократов. XX век вдохнул в Таврический дворец новую жизнь, политическую - здесь заседал первый парламент Российской Империи.
В настоящее время во дворце располагается штаб-квартира спикеров стран Содружества Независимых Государств. Зрителям предлагается совершить небольшую видеоэкскурсию и узнать для себя немало нового и интересного!









General
Complete name : C:\DVD documental fimls\RTG\Таврический дворец\Таврический дворец (2012).avi
Format : AVI
Format/Info : Audio Video Interleave
File size : 547 MiB
Duration : 34mn 37s
Overall bit rate : 2 207 Kbps
Writing library : VirtualDub build 35491/release

Video
ID : 0
Format : MPEG-4 Visual
Format profile : Advanced Simple@L5
Format settings, BVOP : 2
Format settings, QPel : No
Format settings, GMC : No warppoints
Format settings, Matrix : Default (H.263)
Muxing mode : Packed bitstream
Codec ID : XVID
Codec ID/Hint : XviD
Duration : 34mn 37s
Bit rate : 2 002 Kbps
Width : 720 pixels
Height : 400 pixels
Display aspect ratio : 16:9
Frame rate : 25.000 fps
Color space : YUV
Chroma subsampling : 4:2:0
Bit depth : 8 bits
Scan type : Progressive
Compression mode : Lossy
Bits/(Pixel*Frame) : 0.278
Stream size : 496 MiB (91%)
Writing library : XviD 65

Audio
ID : 1
Format : MPEG Audio
Format version : Version 1
Format profile : Layer 3
Mode : Joint stereo
Codec ID : 55
Codec ID/Hint : MP3
Duration : 34mn 37s
Bit rate mode : Constant
Bit rate : 192 Kbps
Channel(s) : 2 channels
Sampling rate : 48.0 KHz
Compression mode : Lossy
Stream size : 47.6 MiB (9%)
Alignment : Aligned on interleaves
Interleave, duration : 24 ms (0.60 video frame)
Interleave, preload duration : 504 ms
Writing library : LAME3.98.2


=================================

Исходником послужил релиз HDTV, найденный на просторах инета!

Архивы созданы RAR-архиватором с добавлением 3% на восстановление и снабжены sfv-проверочником.
Просьба к первому скачавшему отписаться о сохранности архивов на источнике раздачи.


ПРИЯТНОГО ВСЕМ ПРОСМОТРА !!!




--------------------
Безоблачная старость – это миф,
Поскольку наша память – ширь морская,
И к ночи начинается прилив,
Со дна обломки прошлого таская.
Игорь Губерман

Скрыть подпись


kyo
№2 Отправлено: 6.05.2018 - 17:22


Живёт здесь

Группа: Потребители
Регистрация: 21.07.2007
Сообщений: 2009
Обитает:
Последний раз был:
позавчера в 04:23




Архивы в порядке, спасибо !
Top
bornik
№3 Отправлено: 6.05.2018 - 18:12


Воспоминания - это богатства старости.

Группа: Модераторы
Регистрация: 18.08.2008
Сообщений: 1036
Обитает:
Последний раз был:
вчера в 16:49




Цитата
( kyo @ 6.05.2018 - 17:22)
Архивы в порядке, спасибо !

И Вам, kyo, спасибо за добрую весть. happy_fly.gif


--------------------
Безоблачная старость – это миф,
Поскольку наша память – ширь морская,
И к ночи начинается прилив,
Со дна обломки прошлого таская.
Игорь Губерман

Скрыть подпись
Top
1 человек просматривает эту тему (1 гость)
« Предыдущая тема | Мир вокруг нас | Следующая тема »


 



[Script Execution time: 0,0374]   [23 queries used]   [GZIP enabled]