Заходят многие - остаются лучшие!
Здравствуйте Гость ( Вход | Регистрация ) Выслать повторно письмо для активации
Вход
Ваше имя Пароль Забыли пароль?
Запомнить Вас?
Войти скрытым?



Новые сообщения раздела  

 

 Библейский сюжет. Сёрен Кьеркегор. Страх и трепет (2008), Авторская программа Дмитрия Менделеева
Alevtina
  №1 Отправлено: 6.05.2018 - 18:06


Время камни собирать...

Группа: Аксакалы
Регистрация: 12.02.2009
Сообщений: 5691
Обитает:
Последний раз был:
вчера в 19:23




Библейский сюжет. Сёрен Кьеркегор. Страх и трепет



В рамках проекта -

Год выпуска: 2008

Страна: Россия

Режиссер: Ольга Жукова

Студия: ООО Студия "Неофит"

Автор и ведущий: Дмитрий Менделеев


Обращение великих художников к Библии никогда не заканчивалось только иллюстрацией того или иного сюжета Вечной Книги. Оно всегда предполагало личное осмысление. Художник выбирал библейскую историю, чтобы рассказать о себе, о своем времени, чтобы глубже постичь смысл происходящего.
Язык образов Святого Писания был универсален и понятен для всех. Но теперь для нас этот язык наполовину забыт. Мы уже не можем так ясно, с листа, читать всё, что говорили в своих произведениях художники, поэты, композиторы и писатели прошлого. Мы более опираемся на чувственное восприятие, которое все же является только частью замысла, его внешней стороной. В программе "Библейский сюжет" делается попытка соединить "прекрасного разрозненные части", по-другому взглянуть на всемирно известные произведения искусства, рассказать о судьбе их создателей.


Описание:

Жил-был человек, который в детстве слышал прекрасную повесть о том, как Господь испытывал Авраама и как Авраам выдержал испытание, сохранив веру, и вторично обрел сына, сверх чаяния. Став постарше, человек этот сам прочел ту же повесть с еще большим восхищением. И чем старше становился он, тем чаще его мысли обращались к этой повести, тем больше он восторгался ею и в то же время все меньше и меньше понимал ее. В конце концов, он позабыл из-за этой повести обо всем остальном на свете: в душе его осталось одно желание – узреть Авраама, одно стремление – присутствовать при этом событии. «Страх и трепет». Сёрен Кьеркегор.



Media-info:


Format : AVI
Format/Info : Audio Video Interleave
File size : 356 MiB
Duration : 25mn 46s
Overall bit rate : 1 933 Kbps

Video
ID : 0
Format : MPEG-4 Visual
Format profile : Advanced Simple@L5
Format settings, BVOP : Yes
Format settings, QPel : No
Format settings, GMC : No warppoints
Format settings, Matrix : Default (H.263)
Codec ID : XVID
Codec ID/Hint : XviD
Duration : 25mn 46s
Bit rate : 1 792 Kbps
Width : 720 pixels
Height : 544 pixels
Display aspect ratio : 4:3
Frame rate : 25.000 fps
Color space : YUV
Chroma subsampling : 4:2:0
Bit depth : 8 bits
Scan type : Progressive
Bits/(Pixel*Frame) : 0.183
Stream size : 330 MiB (93%)
Writing library : XviD 64

Audio
ID : 1
Format : MPEG Audio
Format version : Version 1
Format profile : Layer 3
Codec ID : 55
Codec ID/Hint : MP3
Duration : 25mn 45s
Bit rate mode : Constant
Bit rate : 128 Kbps
Channel(s) : 2 channels
Sampling rate : 44.1 KHz
Stream size : 23.6 MiB (7%)
Alignment : Split accross interleaves
Interleave, duration : 26 ms (0.65 video frame)


Cкриншоты:







Записались на автоматическое включение в очередь:
baziss, Snara, valbar, vyur, RussianGuy, Marrina, медикус, mosk7, Nadejdaenergia, ILIA, Masjanja, ajlinn, oldfanat, bondsun, mikhailk, medandrey, oster47, Tanjusha, andrusenko, rittaa, medush, rucula

Если вы хотите, чтобы вас автоматически ставили в очередь на следующие выпуски данного цикла, - сообщите об этом в теме последней раздачи.




Это сообщение отредактировал Alevtina - 14.05.2018 - 18:33


--------------------

Прохожие, купите Доброту!
Лишь за улыбку! Разве ж это много!
Исполните заветную мечту…
И хоть одну из Заповедей Бога!
Снимите маски «гордых» и «крутых»
Купите, хоть немножечко, Терпенья.
И ощутите сердцем, хоть на миг,
Всю прелесть и восторг благодаренья!
Сегодня, АКЦИЯ на Совесть и Любовь!
Притормозите «хаммер» свой, иль «буммер»!
Купите! И волнуйте свою кровь!
От этого ещё никто не умер!


Скрыть подпись


медикус
№2 Отправлено: 6.05.2018 - 20:38


Живёт здесь

Группа: Модераторы
Регистрация: 22.07.2008
Сообщений: 9822
Обитает:
Последний раз был:
cегодня в 07:23




Спасибо, архивы в порядке.


--------------------
"Тихо шифером шурша,
Крыша едет не спеша..."
Не помню, кто написал, но дома с этим согласны yes.gif

ПРОЕКТ: В музей - без поводка

Скрыть подпись
Top
Alevtina
№3 Отправлено: 7.05.2018 - 13:15


Время камни собирать...

Группа: Аксакалы
Регистрация: 12.02.2009
Сообщений: 5691
Обитает:
Последний раз был:
вчера в 19:23




медикус,
Цитата
Спасибо, архивы в порядке.

благодарю за весть!


--------------------

Прохожие, купите Доброту!
Лишь за улыбку! Разве ж это много!
Исполните заветную мечту…
И хоть одну из Заповедей Бога!
Снимите маски «гордых» и «крутых»
Купите, хоть немножечко, Терпенья.
И ощутите сердцем, хоть на миг,
Всю прелесть и восторг благодаренья!
Сегодня, АКЦИЯ на Совесть и Любовь!
Притормозите «хаммер» свой, иль «буммер»!
Купите! И волнуйте свою кровь!
От этого ещё никто не умер!


Скрыть подпись
Top
1 человек просматривает эту тему (1 гость)
« Предыдущая тема | Мир и люди искусства | Следующая тема »


 



[Script Execution time: 0,0635]   [23 queries used]   [GZIP enabled]