Заходят многие - остаются лучшие!
Здравствуйте Гость ( Вход | Регистрация ) Выслать повторно письмо для активации
Вход
Ваше имя Пароль Забыли пароль?
Запомнить Вас?
Войти скрытым?



Новые сообщения раздела  

 

 Библейский сюжет. Дитрих Бонхёффер. Во власти добрых сил. (2019), Авторская программа Дмитрия Менделеева
Alevtina
  №1 Отправлено: 14.03.2019 - 12:58


Время камни собирать...

Группа: Аксакалы
Регистрация: 12.02.2009
Сообщений: 5727
Обитает:
Последний раз был:
вчера в 21:44




Библейский сюжет. Дитрих Бонхёффер. Во власти добрых сил.



В рамках проекта -

Год выпуска: 2019

Страна: Россия

Режиссер: Ольга Жукова

Студия: ООО Студия "Неофит"

Автор и ведущий: Дмитрий Менделеев


Обращение великих художников к Библии никогда не заканчивалось только иллюстрацией того или иного сюжета Вечной Книги. Оно всегда предполагало личное осмысление. Художник выбирал библейскую историю, чтобы рассказать о себе, о своем времени, чтобы глубже постичь смысл происходящего.
Язык образов Святого Писания был универсален и понятен для всех. Но теперь для нас этот язык наполовину забыт. Мы уже не можем так ясно, с листа, читать всё, что говорили в своих произведениях художники, поэты, композиторы и писатели прошлого. Мы более опираемся на чувственное восприятие, которое все же является только частью замысла, его внешней стороной. В программе "Библейский сюжет" делается попытка соединить "прекрасного разрозненные части", по-другому взглянуть на всемирно известные произведения искусства, рассказать о судьбе их создателей.


Описание:

Я, окружённый силами благими, Под сенью светлых и незримых крыл,
С друзьями быть стремлюсь – хочу, чтоб с ними Грядущий год меня соединил.
Смущают сердце давние печали, Как будто ад придумал эти дни...
Дай Бог, чтоб мы чуть-чуть смелее стали. Прошу, Господь: спаси и сохрани!

Это стихотворение стало гимном многих современных протестантов. Пастор, богослов, Дитрих Бонхёффер, отказавшийся сотрудничать с нацистами, примкнувший к Исповедующей церкви, а потом и к движению сопротивления, ставший двойным агентом Абвера, почти как пастор Шлаг из "Семнадцати мгновений весны", и спасший на этой работе жизни многих-многих евреев… Он начал писать стихи в тюрьме, незадолго до смерти. "Во власти добрых сил" – его последняя песня, последнее утешение сокамерникам и родным. Его казнили вместе с другими участниками неудачного заговора против Гитлера. "Утром, – вспоминал врач концлагеря, – через приоткрытую дверь я видел Бонхёффера стоящим на коленях в горячей молитве перед Господом Богом… За всю мою почти полувековую врачебную деятельность я не видел человека, умиравшего в большей преданности Богу".


Media-info:

Format : AVI
Format/Info : Audio Video Interleave
File size : 354 MiB
Duration : 25mn 37s
Overall bit rate : 1 932 Kbps

Video
ID : 0
Format : MPEG-4 Visual
Format profile : Advanced Simple@L5
Format settings, BVOP : Yes
Format settings, QPel : No
Format settings, GMC : No warppoints
Format settings, Matrix : Default (H.263)
Codec ID : XVID
Codec ID/Hint : XviD
Duration : 25mn 37s
Bit rate : 1 792 Kbps
Width : 720 pixels
Height : 400 pixels
Display aspect ratio : 16:9
Frame rate : 25.000 fps
Color space : YUV
Chroma subsampling : 4:2:0
Bit depth : 8 bits
Scan type : Progressive
Bits/(Pixel*Frame) : 0.249
Stream size : 328 MiB (93%)
Writing library : XviD 64

Audio
ID : 1
Format : MPEG Audio
Format version : Version 1
Format profile : Layer 3
Codec ID : 55
Codec ID/Hint : MP3
Duration : 25mn 37s
Bit rate mode : Constant
Bit rate : 128 Kbps
Channel(s) : 2 channels
Sampling rate : 44.1 KHz
Stream size : 23.5 MiB (7%)
Alignment : Split accross interleaves
Interleave, duration : 26 ms (0.65 video frame)


Cкриншоты:







Записались на автоматическое включение в очередь:
baziss, Snara, valbar, vyur, RussianGuy, Marrina, медикус, mosk7, Nadejdaenergia, ILIA, Masjanja, ajlinn, oldfanat, bondsun, mikhailk, medandrey, oster47, Tanjusha, andrusenko, rittaa, medush, rucula

Если вы хотите, чтобы вас автоматически ставили в очередь на следующие выпуски данного цикла, - сообщите об этом в теме последней раздачи.




Это сообщение отредактировал Alevtina - 14.03.2019 - 21:22


--------------------

Прохожие, купите Доброту!
Лишь за улыбку! Разве ж это много!
Исполните заветную мечту…
И хоть одну из Заповедей Бога!
Снимите маски «гордых» и «крутых»
Купите, хоть немножечко, Терпенья.
И ощутите сердцем, хоть на миг,
Всю прелесть и восторг благодаренья!
Сегодня, АКЦИЯ на Совесть и Любовь!
Притормозите «хаммер» свой, иль «буммер»!
Купите! И волнуйте свою кровь!
От этого ещё никто не умер!


Скрыть подпись


bondsun
№2 Отправлено: 14.03.2019 - 14:46


кучерявый

Группа: Потребители
Регистрация: 17.08.2009
Сообщений: 4604
Обитает:
Последний раз был:
вчера в 18:17





Благодарствую, архив в порядке.


--------------------
Пусть рушится мир весь вокруг, пополам,
Пусть часто фортуна не прёт.
Не кофе нас должен бодрить по утрам,
А тот, кто его подаёт.

happy.gif

Скрыть подпись
Top
Alevtina
№3 Отправлено: 14.03.2019 - 19:31


Время камни собирать...

Группа: Аксакалы
Регистрация: 12.02.2009
Сообщений: 5727
Обитает:
Последний раз был:
вчера в 21:44




bondsun, благодарю за весть!


--------------------

Прохожие, купите Доброту!
Лишь за улыбку! Разве ж это много!
Исполните заветную мечту…
И хоть одну из Заповедей Бога!
Снимите маски «гордых» и «крутых»
Купите, хоть немножечко, Терпенья.
И ощутите сердцем, хоть на миг,
Всю прелесть и восторг благодаренья!
Сегодня, АКЦИЯ на Совесть и Любовь!
Притормозите «хаммер» свой, иль «буммер»!
Купите! И волнуйте свою кровь!
От этого ещё никто не умер!


Скрыть подпись
Top
1 человек просматривает эту тему (1 гость)
« Предыдущая тема | Мир и люди искусства | Следующая тема »


 



[Script Execution time: 0,0254]   [22 queries used]   [GZIP enabled]