Заходят многие - остаются лучшие!
Здравствуйте Гость ( Вход | Регистрация ) Выслать повторно письмо для активации
Вход
Ваше имя Пароль Забыли пароль?
Запомнить Вас?
Войти скрытым?



 Правила раздела Новые сообщения раздела  


 

 Анетта (1966), Киноновелла,короткометражный;Реж-Г.Шмованов;Роли-В.Алтайская,В.Пименов
SanSan48
  №1 Отправлено: 19.02.2016 - 18:21


"Спартак" - ЧЕМПИОН!!!

Группа: Пользователи
Регистрация: 28.12.2009
Сообщений: 1901
Обитает:
Последний раз был:
17.06.2018 - 13:29




Анетта (1966)



Жанр: киноновелла, короткометражный
Выпущено: СССР, Одесская киностудия художественных фильмов
Год выпуска: 1966
Премьера (СССР): 25.02.1967
Сценарист: Б.Шустров
Оператор: Л.Жилкин
Композитор: А.Красотов
Художники: С.Жаров
Монтажёр: Э.Майская

Режиссёр: Георгий Шмованов

В ролях:
Вера Алтайская … Анетта
Виктор Пименов … Коля
Валерий Панарин … старпом
Дмитрий Орловский … капитан
Владимир Евченко
Николай Кошкин
Виктор Степаненко
Валентин Стоянов
А.Чинов
В.Федоренко

Описание:
На рыболовецкое судно пришла новая повариха - добрая пожилая женщина Анетта. Матросы, ожидавшие увидеть молодую, были разочарованы. Однако её отношение к ребятам, добрая улыбка со временем покорила всех. Она, как мать, заботилась о молодых матросах, за что парни стали называть её «мамуся». Но она не могла простить жестокости одного из них и уходит с судна…

Дополнительная информация: Релиз:

Автор рипа: pmv

Большое спасибо за исходник DVB Cheef mate
(Запись потока *.ts со спутника Eutelsat Hot Bird 13B/C/D, 13° в.д., с ТК «Наше любимое кино»)

* В съёмках фильма принимала участие команда транспортно-холодильного судна «ПАК»
* Фильм короткометражный, чёрно-белый, 2 ч., 460 м

IMDb = - информация отсутствует
Кинопоиск = - информация отсутствует

ВНИМАНИЕ!!! РИП ФОРМАТА mkv (кодек H.264) ВОСПРОИЗВОДИТСЯ НЕ НА ВСЕХ БЫТОВЫХ ВИДЕОПЛЕЕРАХ!!!

Параметры файла:
Название: Анетта (1966).mkv
Качество видео: SATRip-AVC
Формат видео: MKV
Размер: 191 МБ (201 302 567 bytes)
Продолжительность: 00:15:49
Видео: AVC (H264), 720@757x568 (1.33:1), 25 fps, 1500 Kbps, 0.154 Bits/Pixel
Аудио: 48 kHz, AC3 Dolby Digital, 2/0 (L,R) ch, ~ 192.00 kbps avg



General
Unique ID : 213934732543493979678636130550394991586 (0xA0F254AC5C0F7E93BA71D84754C933E2)
Complete name : D:\torrents\Анетта (1966).mkv
Format : Matroska
Format version : Version 4 / Version 2
File size : 192 MiB
Duration : 15mn 48s
Overall bit rate : 1 698 Kbps
Encoded date : UTC 2016-02-10 23:25:30
Writing application : mkvmerge v8.8.0 ('Wind at my back') 64bit
Writing library : libebml v1.3.3 + libmatroska v1.4.4
DURATION : 00:15:48.480000000
NUMBER_OF_FRAMES : 29640
NUMBER_OF_BYTES : 22763520
_STATISTICS_WRITING_APP : mkvmerge v8.8.0 ('Wind at my back') 64bit
_STATISTICS_WRITING_DATE_UTC : 2016-02-10 23:25:30
_STATISTICS_TAGS : BPS DURATION NUMBER_OF_FRAMES NUMBER_OF_BYTES

Video
ID : 1
Format : AVC
Format/Info : Advanced Video Codec
Format profile : High@L4.1
Format settings, CABAC : Yes
Format settings, ReFrames : 16 frames
Codec ID : V_MPEG4/ISO/AVC
Duration : 15mn 48s
Bit rate : 1 500 Kbps
Width : 688 pixels
Height : 568 pixels
Display aspect ratio : 4:3
Original display aspect ratio : 1.211
Frame rate mode : Constant
Frame rate : 25.000 fps
Color space : YUV
Chroma subsampling : 4:2:0
Bit depth : 8 bits
Scan type : Progressive
Bits/(Pixel*Frame) : 0.154
Stream size : 166 MiB (87%)
Writing library : x264 core 130 r2273 b3065e6
Encoding settings : cabac=1 / ref=16 / deblock=1:0:0 / analyse=0x3:0x133 / me=umh / subme=10 / psy=1 / psy_rd=1.00:0.00 / mixed_ref=1 / me_range=24 / chroma_me=1 / trellis=2 / 8x8dct=1 / cqm=0 / deadzone=21,11 / fast_pskip=1 / chroma_qp_offset=-2 / threads=36 / lookahead_threads=4 / sliced_threads=0 / nr=0 / decimate=1 / interlaced=0 / bluray_compat=0 / constrained_intra=0 / bframes=8 / b_pyramid=2 / b_adapt=2 / b_bias=0 / direct=3 / weightb=1 / open_gop=0 / weightp=2 / keyint=250 / keyint_min=25 / scenecut=40 / intra_refresh=0 / rc_lookahead=60 / rc=2pass / mbtree=1 / bitrate=1500 / ratetol=1.0 / qcomp=0.60 / qpmin=0 / qpmax=69 / qpstep=4 / cplxblur=20.0 / qblur=0.5 / ip_ratio=1.40 / aq=1:1.00
Language : Russian
Default : Yes
Forced : No

Audio
ID : 2
Format : AC-3
Format/Info : Audio Coding 3
Mode extension : CM (complete main)
Format settings, Endianness : Big
Codec ID : A_AC3
Duration : 15mn 48s
Bit rate mode : Constant
Bit rate : 192 Kbps
Channel(s) : 2 channels
Channel positions : Front: L R
Sampling rate : 48.0 KHz
Bit depth : 16 bits
Compression mode : Lossy
Stream size : 21.7 MiB (11%)
Language : Russian
Default : Yes
Forced : No








МОИ РАЗДАЧИ НА ФЕНИКСе: ЗДЕСЬ




Это сообщение отредактировал Alevtina - 19.02.2016 - 20:13


--------------------
"Спартак" - ЧЕМПИОН!!!

Скрыть подпись
kyo
№2 Отправлено: 19.02.2016 - 19:18


Живёт здесь

Группа: Потребители
Регистрация: 21.07.2007
Сообщений: 1977
Обитает:
Последний раз был:
вчера в 14:55




Архив в порядке, спасибо !
Top
SanSan48
№3 Отправлено: 19.02.2016 - 20:01


"Спартак" - ЧЕМПИОН!!!

Группа: Пользователи
Регистрация: 28.12.2009
Сообщений: 1901
Обитает:
Последний раз был:
17.06.2018 - 13:29




Цитата
( kyo @ 19.02.2016 - 19:18)
Архив в порядке, спасибо !

kyo, Благодарю за сообщение!


--------------------
"Спартак" - ЧЕМПИОН!!!

Скрыть подпись
Top
pushistiy
№4 Отправлено: 20.02.2016 - 14:17


Старожил

Группа: Потребители
Регистрация: 8.12.2013
Сообщений: 689
Последний раз был:
вчера в 17:41




Цитата
SanSan48 @ 19.02.2016 - 18:21

IMDb = - информация отсутствует
Кинопоиск = - информация отсутствует

Зато есть таковая на сайте Кино-Театр.Ru sad.gif
Top
cerber
№5 Отправлено: 1.05.2016 - 08:24


Гость

Группа: Новички
Регистрация: 1.05.2016
Сообщений: 2
Обитает:
Последний раз был:
8.06.2016 - 06:29




Скачал! Огромное спасибо!
Top
Tulingosh
№6 Отправлено: 12.02.2018 - 09:50


Гость

Группа: Новички
Регистрация: 12.02.2018
Сообщений: 1
Обитает:
Последний раз был:
12.06.2018 - 17:57




Спасибо!!!


Это сообщение отредактировал Tulingosh - 12.02.2018 - 09:56
Top
1 человек просматривает эту тему (1 гость)
« Предыдущая тема | Отечественное кино | Следующая тема »


 



[Script Execution time: 0,0843]   [23 queries used]   [GZIP enabled]