Заходят многие - остаются лучшие!
Здравствуйте Гость ( Вход | Регистрация ) Выслать повторно письмо для активации
Вход
Ваше имя Пароль Забыли пароль?
Запомнить Вас?
Войти скрытым?



Новые сообщения раздела  

 

 Алла Пугачёва Синий Альбом (2012)
шам
  №1 Отправлено: 16.04.2014 - 11:15


Живёт здесь

Группа: Модераторы
Регистрация: 30.06.2008
Сообщений: 14850
Обитает:
Последний раз был:
вчера в 07:04




Алла Пугачёва «Синий Альбом» (2012)


Страна: СССР / Россия
Жанр: Советская Эстрада
Audio Format: FLAC (image, cue, log, covers)
File size in archieves: 455 mB

Когда-то она была приличной певицей...
Минорные, серьёзные и любовные вещи.
Исполнитель: Алла Пугачёва
Альбом: "Синий Альбом"

Год: 2012

Жанр: pop-music » советская эстрада, сборник

Страна: Россия, СССР
Страна-производитель диска: Россия
Год издания диска: 2012
Издатель (лейбл): Музыкальное Издательство Дома Культуры города Нерехта
Номер по каталогу: n/a

Tracklist:

01. Да (3:23)
02. Приезжай (5:45)
03. Не Отрекаются Любя (4:10)
04. Ты На Свете Есть (4:16)
05. Верю в Тебя (4:54)
06. До Свидания, Лето (4:37)
07. Мне Нравится (1:35)
08. Монолог (4:28)
09. Беда (5:02)
10. Как Тревожен Этот Путь (4:55)
11. Сбереги Тебя Судьба (5:12)
12. Эти Летние Дожди (4:46)
13. У Зеркала (1:38)
14. Друг Друга Мы Нашли (3:42)
15. Старый Друг (5:16)
16. Телефонная Книжка (4:51)
17. Ты Не Стал Судьбой (4:56)
18. По Улице Моей (2:49)



Exact Audio Copy V0.99 prebeta 5 from 4. May 2009

EAC extraction logfile from 7. December 2013, 20:42

Алла Пугачёва / Синий Альбом

Used drive : HL-DT-STDVD-RAM GH22NP20 Adapter: 1 ID: 0

Read mode : Secure
Utilize accurate stream : Yes
Defeat audio cache : Yes
Make use of C2 pointers : No

Read offset correction : 102
Overread into Lead-In and Lead-Out : No
Fill up missing offset samples with silence : Yes
Delete leading and trailing silent blocks : No
Null samples used in CRC calculations : Yes
Used interface : Native Win32 interface for Win NT & 2000

Used output format : Internal WAV Routines
Sample format : 44.100 Hz; 16 Bit; Stereo


TOC of the extracted CD

Track | Start | Length | Start sector | End sector
---------------------------------------------------------
1 | 0:00.00 | 3:23.27 | 0 | 15251
2 | 3:23.27 | 5:45.20 | 15252 | 41146
3 | 9:08.47 | 4:09.72 | 41147 | 59893
4 | 13:18.44 | 4:15.51 | 59894 | 79069
5 | 17:34.20 | 4:54.42 | 79070 | 101161
6 | 22:28.62 | 4:36.20 | 101162 | 121881
7 | 27:05.07 | 1:35.06 | 121882 | 129012
8 | 28:40.13 | 4:28.15 | 129013 | 149127
9 | 33:08.28 | 5:02.23 | 149128 | 171800
10 | 38:10.51 | 4:54.64 | 171801 | 193914
11 | 43:05.40 | 5:11.62 | 193915 | 217301
12 | 48:17.27 | 4:46.15 | 217302 | 238766
13 | 53:03.42 | 1:37.57 | 238767 | 246098
14 | 54:41.24 | 3:41.71 | 246099 | 262744
15 | 58:23.20 | 5:16.13 | 262745 | 286457
16 | 63:39.33 | 4:51.13 | 286458 | 308295
17 | 68:30.46 | 4:56.09 | 308296 | 330504
18 | 73:26.55 | 2:48.59 | 330505 | 343163


Range status and errors

Selected range

Filename F:\extract\Алла Пугачёва - Синий Альбом.wav

Peak level 97.1 %
Range quality 100.0 %
Test CRC 981E201F
Copy CRC 981E201F
Copy OK

No errors occurred

End of status report


Продолжительность: 76:17

Качество: lossless
Формат: FLAC
Параметры аудио: image +cue

Размер файла: 455 mB
Залито на: rusfolder.com

Для получения линка и пароля достаточно ответить в тему или нажать кнопку "Спасибо".


1 человек просматривает эту тему (1 гость)
« Предыдущая тема | Звуки му... | Следующая тема »


 



[Script Execution time: 0,0898]   [23 queries used]   [GZIP enabled]