Заходят многие - остаются лучшие!
Здравствуйте Гость ( Вход | Регистрация ) Выслать повторно письмо для активации
Вход
Ваше имя Пароль Забыли пароль?
Запомнить Вас?
Войти скрытым?



Новые сообщения раздела  

 

 Библейский сюжет. Борис Слуцкий. Разговоры о Боге (2018), Авторская программа Дмитрия Менделеева
Alevtina
  №1 Отправлено: 15.04.2018 - 15:21


Время камни собирать...

Группа: Аксакалы
Регистрация: 12.02.2009
Сообщений: 5669
Обитает:
Последний раз был:
вчера в 19:39




Библейский сюжет. Борис Слуцкий. "Разговоры о Боге"



В рамках проекта -

Год выпуска: 2018

Страна: Россия

Режиссер: Ольга Жукова

Студия: ООО Студия "Неофит"

Автор и ведущий: Дмитрий Менделеев


Обращение великих художников к Библии никогда не заканчивалось только иллюстрацией того или иного сюжета Вечной Книги. Оно всегда предполагало личное осмысление. Художник выбирал библейскую историю, чтобы рассказать о себе, о своем времени, чтобы глубже постичь смысл происходящего.
Язык образов Святого Писания был универсален и понятен для всех. Но теперь для нас этот язык наполовину забыт. Мы уже не можем так ясно, с листа, читать всё, что говорили в своих произведениях художники, поэты, композиторы и писатели прошлого. Мы более опираемся на чувственное восприятие, которое все же является только частью замысла, его внешней стороной. В программе "Библейский сюжет" делается попытка соединить "прекрасного разрозненные части", по-другому взглянуть на всемирно известные произведения искусства, рассказать о судьбе их создателей.


Описание:

После смерти жены он спасался стихами. За два с половиной месяца - двести стихотворений. По три в день… А после он окажется в Первой Градской больнице. «Нервное истощение, вызванное многолетней бессонницей, плюс синдром одиночества» - объясняли врачи. За оставшиеся ему девять лет жизни он больше не напишет ничего. Бросит семинар по поэзии, который вёл, вообще мало где будет появляться. «Я написал двести стихотворений и сошел с ума» - сказал он своему давнему другу Давиду Самойлову. «Говорят, что это болезнь совести после пастернаковской истории, – вспоминал Давид Самуилович. - Другие - смерть Тани. На самом деле причин было много. Он не сошел с ума. Он не был лишенным ума. Ум остался. Была тяжелая душевная болезнь. Вот и гадай теперь, где помещается душа». Тогда еще не знали его последних стихов - о последнем, высшем милосердии, которое избавит его от боли...

Стесняясь и путаясь:
может быть, нет,
а может быть, есть, -
они говорили о Боге,
подразумевая то совесть, то честь,
они говорили о Боге.
А те, кому в жизни не повезло,
решили, что Бог - равнодушное зло,
инстанция выше последней
и санкция всех преступлений.
Но Бог на кресте, истомленный, нагой,
совсем не всесильный, скорей - всеблагой,
сама воплощенная милость,
дойти до которой всем было легко,
был яблочком, что откатилось
от яблони - далеко, далеко.
И Ветхий завет, где владычил Отец,
не радовал больше усталых сердец.
Его прочитав, устремились
к тому, Кто не правил и Кто не карал,
а нищих на папертях собирал -
не сила, не право, а милость.

Борис Слуцкий «Разговоры о Боге»



Media-info:


Формат : AVI
Формат/Информация : Audio Video Interleave
Размер файла : 359 Мбайт
Продолжительность : 26 м.
Общий поток : 1928 Кбит/сек

Видео
Идентификатор : 0
Формат : MPEG-4 Visual
Профиль формата : Advanced Simple@L5
Параметр BVOP формата : 2
Параметр QPel формата : Нет
Параметр GMC формата : Без точки перехода
Параметр матрицы формата : Default (H.263)
Идентификатор кодека : XVID
Идентификатор кодека/Подсказка : XviD
Продолжительность : 26 м.
Битрейт : 1788 Кбит/сек
Ширина : 720 пикс.
Высота : 400 пикс.
Соотношение сторон : 16:9
Частота кадров : 25,000 кадр/сек
Цветовое пространство : YUV
Подвыборка цветности : 4:2:0
Битовая глубина : 8 бит
Тип развёртки : Прогрессивная
Метод сжатия : С потерями
Бит/(Пиксели*Кадры) : 0.248
Размер потока : 333 Мбайт (93%)
Библиотека кодирования : XviD 64

Аудио
Идентификатор : 1
Формат : MPEG Audio
Версия формата : Version 1
Профиль формата : Layer 3
Идентификатор кодека : 55
Идентификатор кодека/Подсказка : MP3
Продолжительность : 26 м.
Вид битрейта : Постоянный
Битрейт : 128 Кбит/сек
Канал(ы) : 2 канала(ов)
Частота : 44,1 КГц
Метод сжатия : С потерями
Размер потока : 23,8 Мбайт (7%)
Выравнивание : Разделение по промежуткам
Продолжительность промежутка : 26 мс. (0,65 видеокадр)


Cкриншоты:








Записались на автоматическое включение в очередь:
baziss, Snara, valbar, vyur, RussianGuy, Marrina, медикус, mosk7, Nadejdaenergia, ILIA, Masjanja, ajlinn, oldfanat, bondsun, mikhailk, medandrey, oster47, Tanjusha, andrusenko, rittaa, medush, rucula

Если вы хотите, чтобы вас автоматически ставили в очередь на следующие выпуски данного цикла, - сообщите об этом в теме последней раздачи.




Это сообщение отредактировал Alevtina - 15.04.2018 - 15:36


--------------------

Прохожие, купите Доброту!
Лишь за улыбку! Разве ж это много!
Исполните заветную мечту…
И хоть одну из Заповедей Бога!
Снимите маски «гордых» и «крутых»
Купите, хоть немножечко, Терпенья.
И ощутите сердцем, хоть на миг,
Всю прелесть и восторг благодаренья!
Сегодня, АКЦИЯ на Совесть и Любовь!
Притормозите «хаммер» свой, иль «буммер»!
Купите! И волнуйте свою кровь!
От этого ещё никто не умер!


Скрыть подпись


baziss
№2 Отправлено: 15.04.2018 - 18:28


Аксакал обыкновенный

Группа: Аксакалы
Регистрация: 4.12.2005
Сообщений: 2524
Обитает:
Последний раз был:
вчера в 17:48




Архив в порядке. Большое спасибо! chveti.gif


--------------------

Скрыть подпись
Top
Alevtina
№3 Отправлено: 15.04.2018 - 19:37


Время камни собирать...

Группа: Аксакалы
Регистрация: 12.02.2009
Сообщений: 5669
Обитает:
Последний раз был:
вчера в 19:39




baziss, благодарю за весть!


--------------------

Прохожие, купите Доброту!
Лишь за улыбку! Разве ж это много!
Исполните заветную мечту…
И хоть одну из Заповедей Бога!
Снимите маски «гордых» и «крутых»
Купите, хоть немножечко, Терпенья.
И ощутите сердцем, хоть на миг,
Всю прелесть и восторг благодаренья!
Сегодня, АКЦИЯ на Совесть и Любовь!
Притормозите «хаммер» свой, иль «буммер»!
Купите! И волнуйте свою кровь!
От этого ещё никто не умер!


Скрыть подпись
Top
1 человек просматривает эту тему (1 гость)
« Предыдущая тема | Мир и люди искусства | Следующая тема »


 



[Script Execution time: 0,0312]   [23 queries used]   [GZIP enabled]