Заходят многие - остаются лучшие!
Здравствуйте Гость ( Вход | Регистрация ) Выслать повторно письмо для активации
Вход
Ваше имя Пароль Забыли пароль?
Запомнить Вас?
Войти скрытым?



 Правила раздела Новые сообщения раздела  


 

 Девушка на красных бархатных качелях / The Girl in the Red Velvet Swing (1955), Джоан Коллинз, Рэй Милланд
surzhoks
  №1 Отправлено: 31.12.2016 - 19:58


Живёт здесь

Группа: Аксакалы
Регистрация: 17.03.2008
Сообщений: 1064
Обитает:
Последний раз был:
4.06.2018 - 19:46




Девушка на красных бархатных качелях / The Girl in the Red Velvet Swing


Страна: США
Студия: 20th Century Fox Film Corporation
Жанр: драма, мелодрама, криминал
Год выпуска: 1955
Продолжительность: 01:44:26
Режиссер: Ричард Флайшер / Richard Fleischer
Композитор: Ли Харлайн / Leigh Harline

В ролях:
Рэй Милланд / Ray Milland ... Stanford White
Джоан Коллинз / Joan Collins ... Evelyn Nesbit Thaw
Фарли Грейнджер / Farley Granger ... Harry Kendall Thaw
Лютер Эдлер / Luther Adler ... Delphin Delmas
Корнелия Отис Скиннер / Cornelia Otis Skinner ... Mrs. Thaw
Гленда Фаррелл / Glenda Farrell ... Mrs. Nesbit
Фрэнсис Фуллер / Frances Fuller ... Mrs. Elizabeth White
Филип Рид / Phillip Reed (в титрах: Philip Reed) ... Robert Collier
Гэйл Роббинс / Gale Robbins ... Gwen Arden
Джон Хойт / John Hoyt ... William Travers Jerome
Роберт Ф. Саймон / Robert F. Simon (в титрах: Robert Simon) ... Stage Manager
Харви Стефенс / Harvey Stephens ... Dr. Hollingshead DDS
Эмиль Мейер / Emile Meyer ... Hunchbacher

Описание: Богатый и знаменитый нью-йоркский 47-летний архитектор Стэнфорд Уайт увлекается 16-летней моделью и певичкой кабаре Эвелин Несбит. Но по достижении девушкой 20-летнего возраста, на ней женится молодой миллионер Гарри Тау. Гарри никак не может обуздать свою ревность, зная о влечении Уайта к его жене. Однажды Гарри замечает в кафе, как Уайт вожделенно смотрит на Эвелин. Тем же вечером он замечает Уайта в кабаре, где выступает Эвелин. Разгоряченный Гарри стреляет в Уайта. В обществе Нью-Йорка разгорается огромный скандал, когда становится известно о связи Уайта и несовершеннолетней Эвелин...
- Флоренс Эвелин Несбит (англ. Florence Evelyn Nesbit) — американская натурщица, актриса, участница кордебалета, одна из «девушек Гибсона». Флоренс Эвелин Несбит родилась 25 декабря 1884 года в Таренте, небольшой деревне недалеко от Питтсбурга, Пенсильвания, США. Умерла в доме престарелых в Санта-Монике, Калифорния 17 января 1967 года, в возрасте 82 лет.
- Эвелин Несбит выступила техническим советником фильма.
- Первоначально планировалось взять на главную роль Мэрилин Монро, но она отказалась.


Доп. информация:
Огромное спасибо всем причастным к релизу:
рип - Магда,
перевод и озвучивание фильма - Юрий Медведев,
работа со звуком и реавторинг исходного DVD- AlekceyR76,
финансовая поддержка перевода и озвучивания фильма:
Lafajet, Магда, jasenka, елена 22, yanaelisa, old76, Ugo927, cementit, HippopotamusIV, voostorg, mangust1, Lars134, surzhoks, neddgu, BaluBaly, борюська, spartakeynoir, STICK24, Видео

Архивы созданы RAR-архиватором с добавлением 3% на восстановление и снабжены sfv-проверочником.
Есть зеркало на яндекс-диск.

Просьба к первому скачавшему отписаться о сохранности архивов на источнике раздачи.

Раздача рассчитана на 2 месяца. На просмотр линка и скачивание 5 дней!
В случае если вы встали в очередь, а затем отказываетесь от скачивания без объяснения причин, возможен отказ в последующих моих раздачах.



Полное имя :The Girl in the Red Velvet Swing.DVDRip.avi
Формат : AVI
Формат/Информация : Audio Video Interleave
Размер файла : 1,60 Гбайт
Продолжительность : 1 ч. 44 м.
Общий поток : 2193 Кбит/сек
Программа кодирования : VirtualDubMod 1.5.4.1 (build 2178/release)
Библиотека кодирования : VirtualDubMod build 2178/release

Видео
Идентификатор : 0
Формат : MPEG-4 Visual
Профиль формата : Advanced Simple@L5
Параметр BVOP формата : 2
Параметр QPel формата : Нет
Параметр GMC формата : Без точки перехода
Параметр матрицы формата : Default (H.263)
Идентификатор кодека : DX50
Идентификатор кодека/Подсказка : DivX 5
Продолжительность : 1 ч. 44 м.
Битрейт : 1795 Кбит/сек
Ширина : 720 пикселей
Высота : 288 пикселей
Соотношение сторон : 2,500
Частота кадров : 25,000 кадров/сек
Цветовое пространство : YUV
Субдискретизация насыщенности : 4:2:0
Битовая глубина : 8 бит
Тип развёртки : Прогрессивная
Метод сжатия : С потерями
Бит/(Пиксели*Кадры) : 0.346
Размер потока : 1,31 Гбайт (82%)
Библиотека кодирования : XviD 73

Аудио #1
Идентификатор : 1
Формат : AC-3
Формат/Информация : Audio Coding 3
Расширение режима : CM (complete main)
Параметр Endianness формата : Big
Идентификатор кодека : 2000
Продолжительность : 1 ч. 44 м.
Вид битрейта : Постоянный
Битрейт : 192 Кбит/сек
Каналы : 2 канала
Расположение каналов : Front: L R
Частота : 48,0 КГц
Битовая глубина : 16 бит
Метод сжатия : С потерями
Размер потока : 143 Мбайт (9%)
Выравнивание : Разделение по промежуткам
Продолжительность промежутка : 40 мс. (1,00 видеокадр)
Время предзагрузки промежутка : 500 мс.

Аудио #2
Идентификатор : 2
Формат : AC-3
Формат/Информация : Audio Coding 3
Расширение режима : CM (complete main)
Параметр Endianness формата : Big
Идентификатор кодека : 2000
Продолжительность : 1 ч. 44 м.
Вид битрейта : Постоянный
Битрейт : 192 Кбит/сек
Каналы : 2 канала
Расположение каналов : Front: L R
Частота : 48,0 КГц
Битовая глубина : 16 бит
Метод сжатия : С потерями
Размер потока : 143 Мбайт (9%)
Выравнивание : Разделение по промежуткам
Продолжительность промежутка : 40 мс. (1,00 видеокадр)
Время предзагрузки промежутка : 500 мс.




Это сообщение отредактировал surzhoks - 31.12.2016 - 19:59


сергей0808
№2 Отправлено: 31.12.2016 - 21:30


Старожил

Группа: Пользователи
Регистрация: 5.08.2009
Сообщений: 906
Обитает:
Последний раз был:
вчера в 19:53




Архивы в порядке. Спасибо за фильм. С Новым 2017 годом!
Top
1 человек просматривает эту тему (1 гость)
« Предыдущая тема | Зарубежные фильмы | Следующая тема »


 



[Script Execution time: 0,0699]   [23 queries used]   [GZIP enabled]