Заходят многие - остаются лучшие!
Здравствуйте Гость ( Вход | Регистрация ) Выслать повторно письмо для активации
Вход
Ваше имя Пароль Забыли пароль?
Запомнить Вас?
Войти скрытым?



 Правила раздела Новые сообщения раздела  


 

 Их собственное желание / Their Own Desire (1929), Норма Ширер / драма, мелодрама
surzhoks
  №1 Отправлено: 31.12.2016 - 20:32


Живёт здесь

Группа: Аксакалы
Регистрация: 17.03.2008
Сообщений: 1064
Обитает:
Последний раз был:
4.06.2018 - 19:46




Их собственное желание / Their Own Desire


Страна: США
Студия: Metro-Goldwyn-Mayer (MGM)
Жанр: драма, мелодрама
Год выпуска: 1929
Продолжительность: 01:04:28
Режиссер: Э. Мэйсон Хоппер / E. Mason Hopper
Композитор: Уильям Экст / William Axt
В ролях:
Норма Ширер / Norma Shearer ... Lally
Белль Беннетт / Belle Bennett ... Harriet
Льюис Стоун / Lewis Stone ... Marlett
Роберт Монтгомери / Robert Montgomery ... Jack
Хелен Миллард / Helene Millard ... Beth
Сесил Каннингэм / Cecil Cunningham ... Aunt Caroline
Генри Хеберт / Henry Hebert ... Uncle Nate
Мэри Доран / Mary Doran ... Suzanne
Джун Нэш / June Nash ... Mildred
Джозеф Э. Бернард / Joseph E. Bernard ... Doctor, в титрах не указан
Бесс Флауэрс / Bess Flowers ... Miriam - Polo Player / Snooty Dinner Guest, в титрах не указана
Изабель Кит / Isabelle Keith ... Isabelle - Polo Player / Snooty Dinner Guest, в титрах не указана

Описание: Молодая и беззаботная девушка Люсия "Лалли" Марлетт является дочерью состоятельного человека - писателя и заядлого игрока в поло. Однажды отец заявляет, что полюбил другую женщину. После 23 лет брака он намерен развестись со своей супругой Гарриет. Для Лалли развод родителей становится сильным душевным потрясением. Она начинает дурно относиться ко всем мужчинам, но однажды знакомится с очаровательным Джеком, который покоряет ее сердце. Лалли счастлива, но случайно она узнает, что Джек - сын миссис Чивер, женщины, разрушившей брак ее родителей...

Оскар, 1930-2 год
Номинации (1):
Лучшая женская роль (Норма Ширер)


Доп. информация:
Огромное спасибо всем причастным к релизу:
рип - Магда,
перевод фильма - karlivanovich,
озвучивание фильма (по русским субтитрам) - fiendover (Виктор Рутилов),
работа со звуком и реавторинг исходного DVD- AlekceyR76,
финансовая поддержка перевода и озвучивания фильма:
Магда, Lafajet, jasenka, елена 22, yanaelisa, борюська, GalaUkr, mangust1, voostorg, HippopotamusIV, cementit, sveta_pula, mumzik69, spartakeynoir


Архивы созданы RAR-архиватором с добавлением 3% на восстановление и снабжены sfv-проверочником.

Раздача содержит русские субтитры.
Просьба к первому скачавшему отписаться о сохранности архивов на источнике раздачи.

Раздача рассчитана на 2 месяца. На просмотр линка и скачивание 5 дней!
В случае если вы встали в очередь, а затем отказываетесь от скачивания без объяснения причин, возможен отказ в последующих моих раздачах.



Полное имя :Their Own Desire.avi
Формат : AVI
Формат/Информация : Audio Video Interleave
Размер файла : 1,10 Гбайт
Продолжительность : 1 ч. 4 м.
Общий поток : 2435 Кбит/сек
Программа кодирования : VirtualDubMod 1.5.10.3 | www.virtualdub-fr.org || (build 2550/release)
Библиотека кодирования : VirtualDubMod build 2550/release

Видео
Идентификатор : 0
Формат : MPEG-4 Visual
Профиль формата : Advanced Simple@L5
Параметр BVOP формата : 2
Параметр QPel формата : Нет
Параметр GMC формата : Без точки перехода
Параметр матрицы формата : Default (H.263)
Идентификатор кодека : DX50
Идентификатор кодека/Подсказка : DivX 5
Продолжительность : 1 ч. 4 м.
Битрейт : 2037 Кбит/сек
Ширина : 640 пикселей
Высота : 480 пикселей
Соотношение сторон : 4:3
Частота кадров : 23,976 кадра/сек
Цветовое пространство : YUV
Субдискретизация насыщенности : 4:2:0
Битовая глубина : 8 бит
Тип развёртки : Прогрессивная
Метод сжатия : С потерями
Бит/(Пиксели*Кадры) : 0.277
Размер потока : 939 Мбайт (84%)
Библиотека кодирования : XviD 73

Аудио #1
Идентификатор : 1
Формат : AC-3
Формат/Информация : Audio Coding 3
Расширение режима : CM (complete main)
Параметр Endianness формата : Big
Идентификатор кодека : 2000
Продолжительность : 1 ч. 4 м.
Вид битрейта : Постоянный
Битрейт : 192 Кбит/сек
Каналы : 2 канала
Расположение каналов : Front: L R
Частота : 48,0 КГц
Битовая глубина : 16 бит
Метод сжатия : С потерями
Размер потока : 88,5 Мбайт (8%)
Выравнивание : Разделение по промежуткам
Продолжительность промежутка : 42 мс. (1,00 видеокадр)
Время предзагрузки промежутка : 500 мс.

Аудио #2
Идентификатор : 2
Формат : AC-3
Формат/Информация : Audio Coding 3
Расширение режима : CM (complete main)
Параметр Endianness формата : Big
Идентификатор кодека : 2000
Продолжительность : 1 ч. 4 м.
Вид битрейта : Постоянный
Битрейт : 192 Кбит/сек
Каналы : 2 канала
Расположение каналов : Front: L R
Частота : 48,0 КГц
Битовая глубина : 16 бит
Метод сжатия : С потерями
Размер потока : 88,5 Мбайт (8%)
Выравнивание : Разделение по промежуткам
Продолжительность промежутка : 42 мс. (1,00 видеокадр)
Время предзагрузки промежутка : 500 мс.




gilbert00
№2 Отправлено: 1.01.2017 - 10:59


Живёт здесь

Группа: Аксакалы
Регистрация: 1.06.2007
Сообщений: 1648
Обитает:
Последний раз был:
cегодня в 18:24




Архивы в порядке.
Top
1 человек просматривает эту тему (1 гость)
« Предыдущая тема | Зарубежные фильмы | Следующая тема »


 



[Script Execution time: 0,0272]   [23 queries used]   [GZIP enabled]