Заходят многие - остаются лучшие!
Здравствуйте Гость ( Вход | Регистрация ) Выслать повторно письмо для активации
Вход
Ваше имя Пароль Забыли пароль?
Запомнить Вас?
Войти скрытым?



 Правила раздела Новые сообщения раздела  


 

 Краткий миг / Brief Moment (1933), Кэрол Ломбард, Джин Рэймонд / драма
surzhoks
  №1 Отправлено: 8.03.2018 - 19:28


Живёт здесь

Группа: Аксакалы
Регистрация: 17.03.2008
Сообщений: 1070
Обитает:
Последний раз был:
вчера в 21:43




Краткий миг / Brief Moment


Страна: США
Студия: Columbia Pictures Corporation
Жанр: драма
Год выпуска: 1933
Продолжительность: 01:08:46
Режиссер: Дэвид Бертон / David Burton
В ролях:
Кэрол Ломбард / Carole Lombard ... Abby Fane
Джин Рэймонд / Gene Raymond ... Rodney Deane
Дональд Кук / Donald Cook ... Franklin Deane
Монро Оусли / Monroe Owsley ... Harold Sigrift
Артур Хол / Arthur Hohl ... Steve Walsh
Ирен Уэр / Irene Ware ... Joan
Тереза Максвелл Коновер / Theresa Maxwell Conover ... Mrs. Deane
Реджинальд Мэйсон / Reginald Mason ... Mr. Deane
Джеймисон Томас / Jameson Thomas ... Count Armand
Флоренс Бриттон / Florence Britton ... Kay Deane
Херберт Эванс / Herbert Evans ... Alfred
Эдвард ЛеСэйнт / Edward LeSaint ... Higgins, Office Manager

Описание: Богатый плейбой Родни Дин влюбляется в певицу ночного клуба Эбби Фэйн и женится на ней. Эбби хочет, чтобы он стал более ответственным человеком и устроился на работу, поэтому Родни начинает работать на своего отца. Позже Эбби узнает, что Родни не воспринимает свою работу серьезно, а все еще тратит свои дни на ипподроме, поэтому она решает оставить его...

Доп. информация:
Огромное спасибо всем причастным к релизу:
рип - Магда,
перевод и озвучивание фильма - Владимир Воронцов (-Доцент-),
работа со звуком и реавторинг исходного DVD- AlekceyR76,
финансовая поддержка перевода и озвучивания фильма:
Магда, Lafajet, jasenka, yanaelisa, елена 22, voostorg, leoder, cementit, HippopotamusIV, борюська, Mc-Nabbs, spartakeynoir, sapog1960

Архивы созданы RAR-архиватором с добавлением 3% на восстановление и снабжены sfv-проверочником.
Просьба к первому скачавшему отписаться о сохранности архивов на источнике раздачи.

Раздача рассчитана на 2 месяца. На просмотр линка и скачивание 5 дней!
В случае если вы встали в очередь, а затем отказываетесь от скачивания без объяснения причин, возможен отказ в последующих моих раздачах.



Полное имя :Brief Moment.avi
Формат : AVI
Формат/Информация : Audio Video Interleave
Размер файла : 1,10 Гбайт
Продолжительность : 1 ч. 8 м.
Общий поток : 2283 Кбит/сек
Программа кодирования : VirtualDubMod 1.5.10.3 | www.virtualdub-fr.org || (build 2550/release)
Библиотека кодирования : VirtualDubMod build 2550/release

Видео
Идентификатор : 0
Формат : MPEG-4 Visual
Профиль формата : Advanced Simple@L5
Параметр BVOP формата : 2
Параметр QPel формата : Нет
Параметр GMC формата : Без точки перехода
Параметр матрицы формата : Default (H.263)
Идентификатор кодека : DX50
Идентификатор кодека/Подсказка : DivX 5
Продолжительность : 1 ч. 8 м.
Битрейт : 1885 Кбит/сек
Ширина : 640 пикселей
Высота : 480 пикселей
Соотношение сторон : 4:3
Частота кадров : 23,976 кадра/сек
Цветовое пространство : YUV
Субдискретизация насыщенности : 4:2:0
Битовая глубина : 8 бит
Тип развёртки : Прогрессивная
Метод сжатия : С потерями
Бит/(Пиксели*Кадры) : 0.256
Размер потока : 927 Мбайт (83%)
Библиотека кодирования : XviD 73

Аудио #1
Идентификатор : 1
Формат : AC-3
Формат/Информация : Audio Coding 3
Расширение режима : CM (complete main)
Параметр Endianness формата : Big
Идентификатор кодека : 2000
Продолжительность : 1 ч. 8 м.
Вид битрейта : Постоянный
Битрейт : 192 Кбит/сек
Каналы : 2 канала
Расположение каналов : Front: L R
Частота : 48,0 КГц
Битовая глубина : 16 бит
Метод сжатия : С потерями
Размер потока : 94,5 Мбайт (8%)
Выравнивание : Разделение по промежуткам
Продолжительность промежутка : 42 мс. (1,00 видеокадр)
Время предзагрузки промежутка : 500 мс.

Аудио #2
Идентификатор : 2
Формат : AC-3
Формат/Информация : Audio Coding 3
Расширение режима : CM (complete main)
Параметр Endianness формата : Big
Идентификатор кодека : 2000
Продолжительность : 1 ч. 8 м.
Вид битрейта : Постоянный
Битрейт : 192 Кбит/сек
Каналы : 2 канала
Расположение каналов : Front: L R
Частота : 48,0 КГц
Битовая глубина : 16 бит
Метод сжатия : С потерями
Размер потока : 94,5 Мбайт (8%)
Выравнивание : Разделение по промежуткам
Продолжительность промежутка : 42 мс. (1,00 видеокадр)
Время предзагрузки промежутка : 500 мс.




сергей0808
№2 Отправлено: 8.03.2018 - 21:13


Старожил

Группа: Пользователи
Регистрация: 5.08.2009
Сообщений: 907
Обитает:
Последний раз был:
cегодня в 04:59




Всё прекрасно распаковалось. Спасибо за фильм!
Top
1 человек просматривает эту тему (1 гость)
« Предыдущая тема | Зарубежные фильмы | Следующая тема »


 



[Script Execution time: 0,0335]   [23 queries used]   [GZIP enabled]