Заходят многие - остаются лучшие!
Здравствуйте Гость ( Вход | Регистрация ) Выслать повторно письмо для активации
Вход
Ваше имя Пароль Забыли пароль?
Запомнить Вас?
Войти скрытым?



 Правила раздела Новые сообщения раздела  


 

 Луна и грош / The Moon and Sixpence (1942), Драма, экранизация / в гл. роли Джордж Сандерс
surzhoks
  №1 Отправлено: 10.03.2018 - 15:51


Живёт здесь

Группа: Аксакалы
Регистрация: 17.03.2008
Сообщений: 1064
Обитает:
Последний раз был:
4.06.2018 - 19:46




Луна и грош / The Moon and Sixpence


Страна: США
Студия: David L. Loew-Albert Lewin
Жанр: драма
Год выпуска: 1942
Продолжительность: 01:28:32
Режиссер: Альберт Левин / Albert Lewin
Композитор: Дмитрий Тёмкин / Dimitri Tiomkin
В ролях:
Джордж Сандерс / George Sanders ... Charles Strickland
Херберт Маршалл / Herbert Marshall ... Geoffrey Wolfe
Стивен Герэй / Steven Geray ... Dirk Stroeve
Дорис Дадли / Doris Dudley ... Blanche Stroeve
Эрик Блор / Eric Blore ... Capt. Nichols
Альберт Бассерманн / Albert Bassermann ... Dr. Coutras
Флоренс Бейтс / Florence Bates ... Tiare Johnson
Елена Вердуго / Elena Verdugo ... Ata
Молли Ламонт / Molly Lamont ... Mrs. Any Strickland, в титрах не указана
Кеннет Хантер / Kenneth Hunter ... Col. Fred MacAndrew, в титрах не указан
Ирен Тедроу / Irene Tedrow ... Mrs. MacAndrew, в титрах не указана

Описание: Английский биржевой маклер Чарльз Стрикленд, прежде казавшийся окружающим скучнейшим и абсолютно предсказуемым человеком, оставляет жену, детей, надоевшую работу и опостылевший образ жизни, чтобы отправиться в Париж и осуществить свою мечту. С юности жаждущий заниматься живописью, он предается своей страсти с настойчивостью одержимого, не обращая внимания на голод и лишения, не считаясь с правами и чувствами людей, предлагающих ему свою дружбу, и стремление к совершенству в искусстве неумолимо ведет его к трагическому финалу.
Рассказ ведётся от лица случайного знакомого Стрикленда, писателя Джеффри Вулфа, пытающего разгадать тайну личности гениального художника.
Прообразом Чарльза Стрикленда послужил Поль Гоген.

Экранизация одноименного романа Уильяма Сомерсета Моэма.

Доп. информация:
Огромное спасибо всем причастным к релизу:
рип - Магда,
перевод фильма - Naupiter2006 (Лариса Горбачева),
озвучивание фильма (по русским субтитрам, с незначительной редакцией) - minyaev,
работа со звуком и реавторинг исходного DVD- AlekceyR76.

Архивы созданы RAR-архиватором с добавлением 3% на восстановление и снабжены sfv-проверочником.
Просьба к первому скачавшему отписаться о сохранности архивов на источнике раздачи.

Раздача рассчитана на 2 месяца. На просмотр линка и скачивание 5 дней!
В случае если вы встали в очередь, а затем отказываетесь от скачивания без объяснения причин, возможен отказ в последующих моих раздачах.



Полное имя :The Moon and Sixpence.avi
Формат : AVI
Формат/Информация : Audio Video Interleave
Размер файла : 1,58 Гбайт
Продолжительность : 1 ч. 28 м.
Общий поток : 2549 Кбит/сек
Программа кодирования : VirtualDubMod 1.5.4.1 (build 2178/release)
Библиотека кодирования : VirtualDubMod build 2178/release

Видео
Идентификатор : 0
Формат : MPEG-4 Visual
Профиль формата : Advanced Simple@L5
Параметр BVOP формата : 2
Параметр QPel формата : Нет
Параметр GMC формата : Без точки перехода
Параметр матрицы формата : Default (H.263)
Идентификатор кодека : DX50
Идентификатор кодека/Подсказка : DivX 5
Продолжительность : 1 ч. 28 м.
Битрейт : 2151 Кбит/сек
Ширина : 624 пикселя
Высота : 480 пикселей
Соотношение сторон : 4:3
Частота кадров : 23,976 кадра/сек
Цветовое пространство : YUV
Субдискретизация насыщенности : 4:2:0
Битовая глубина : 8 бит
Тип развёртки : Прогрессивная
Метод сжатия : С потерями
Бит/(Пиксели*Кадры) : 0.300
Размер потока : 1,33 Гбайт (84%)
Библиотека кодирования : XviD 73

Аудио #1
Идентификатор : 1
Формат : AC-3
Формат/Информация : Audio Coding 3
Расширение режима : CM (complete main)
Параметр Endianness формата : Big
Идентификатор кодека : 2000
Продолжительность : 1 ч. 28 м.
Вид битрейта : Постоянный
Битрейт : 192 Кбит/сек
Каналы : 2 канала
Расположение каналов : Front: L R
Частота : 48,0 КГц
Битовая глубина : 16 бит
Метод сжатия : С потерями
Размер потока : 122 Мбайт (8%)
Выравнивание : Разделение по промежуткам
Продолжительность промежутка : 42 мс. (1,00 видеокадр)
Время предзагрузки промежутка : 500 мс.

Аудио #2
Идентификатор : 2
Формат : AC-3
Формат/Информация : Audio Coding 3
Расширение режима : CM (complete main)
Параметр Endianness формата : Big
Идентификатор кодека : 2000
Продолжительность : 1 ч. 28 м.
Вид битрейта : Постоянный
Битрейт : 192 Кбит/сек
Каналы : 2 канала
Расположение каналов : Front: L R
Частота : 48,0 КГц
Битовая глубина : 16 бит
Метод сжатия : С потерями
Размер потока : 122 Мбайт (8%)
Выравнивание : Разделение по промежуткам
Продолжительность промежутка : 42 мс. (1,00 видеокадр)
Время предзагрузки промежутка : 500 мс.




kyo
№2 Отправлено: 10.03.2018 - 17:53


Живёт здесь

Группа: Потребители
Регистрация: 21.07.2007
Сообщений: 1977
Обитает:
Последний раз был:
cегодня в 20:37




Архивы в порядке, спасибо !
Top
1 человек просматривает эту тему (1 гость)
« Предыдущая тема | Зарубежные фильмы | Следующая тема »


 



[Script Execution time: 0,0278]   [23 queries used]   [GZIP enabled]