Заходят многие - остаются лучшие!
Здравствуйте Гость ( Вход | Регистрация ) Выслать повторно письмо для активации
Вход
Ваше имя Пароль Забыли пароль?
Запомнить Вас?
Войти скрытым?



 Правила раздела Новые сообщения раздела  


 

 Девушка моей мечты / Женщина моих грёз / Die Frau meiner Träume (1944), Комедия,музыкальный;Реж-Г.Якоби;Роли-М.Рёкк,Ф.Лукши,В.Мюллер
SanSan48
  №1 Отправлено: 17.12.2018 - 15:55


"Спартак" - ЧЕМПИОН!!!

Группа: Пользователи
Регистрация: 28.12.2009
Сообщений: 2043
Обитает:
Последний раз был:
cегодня в 12:43




Девушка моей мечты / Женщина моих грёз / Die Frau meiner Träume (1944)



Предыдущие раздачи:
2.01.2015 (SATRip)
7.05.2011 (DVDRip)
14.03.2010 (DVDRip)
25.02.2007 (DVDRip)
2.05.2007 (DVDRip) (Архив)

Жанр: Комедия, мелодрама, музыкальный
Выпущено: Германия, Ufa-Filmkunst GmbH
Год выпуска: 1944
Премьера (мир): 25 августа 1944 (Германия), 20 ноября 1944 (Швеция), 29 ноября 1944 (Португалия)
Премьера (СССР): 10 марта 1947
Сценаристы: Георг Якоби / Georg Jacoby, Херберт Витт / Herbert Witt, Иоганн фон Вашари / Johann von Vásáry
Оператор: Константин Ирмен-Чет / Konstantin Irmen-Tschet
Композитор: Франц Гроте / Franz Grothe
Художники: Эрих Кеттельхут / Erich Kettelhut
Монтажёр: Эрих Коблер / Erich Kobler

Режиссёр: Георг Якоби / Georg Jacoby

В ролях:
Марика Рёкк / Marika Rökk ... Julia Koestner
Вольфганг Лукши / Wolfgang Lukschy ... Peter Groll, Oberingenieur
Вальтер Мюллер / Walter Müller ... Erwin Forster, Ingenieur
Георг Александер / Georg Alexander ... Der Theaterdirektor
Грета Вайзер / Grethe Weiser ... Luise, Jungfer bei Julia
Инге Дрексель / Inge Drexel ... Resi, Mädchen aus dem Dorfe
Карл Ханнеманн / Karl Hannemann … Gepäckträger am Bahnhof
Карл Этлингер / Karl Etlinger … Oberkellner im Bahnhofsrestaurant
Виктор Янсон / Victor Janson ... Lokalgast
Якоб Тидтке / Jakob Tiedtke … Alter Mann an dr Theaterkasse
Вильгельм Шульте-Фогельхайм / Wilhelm Schulte-Vogelheim … Julias Tanzpartner
Валентин Фроманн / Valentin Fromann … Julias Tanzpartner
Йоханна Эвальд / Johanna Ewald
Эрна Крюгер / Erna Krüger
Карин Люзебринк / Karin Luesebrink

Описание: Звезда эстрадных мюзиклов Юлия Кёстер (Марика Рёкк) ссорится со своим импресарио, бросает театр и уезжает на поезде. Однако коварный импресарио запрещает её камеристке оставить вещи в вагоне, и оставшаяся без билета и багажа певица во время минутной остановки поезда случайно выходит на заснеженном полустанке где-то в горах, где из всех жителей только два горных инженера...

Дополнительная информация:
Релиз:

Исходник найден в сети.

Автор рипа: pmv

Большое спасибо за:
- аудиодорожку с двухголосой озвучкой и субтитры на песни - Борин Сергей
- синхронизацию звуковой аудиодорожки - pmv

IMDb = 6,8/10 (158) - http://www.imdb.com/title/tt0036838/
Кинопоиск = 7.144 (300) - https://www.kinopoisk.ru/film/devushka-moey...hty-1944-62878/

ВНИМАНИЕ!!! РИП ФОРМАТА mkv (кодек H.264) ВОСПРОИЗВОДИТСЯ НЕ НА ВСЕХ БЫТОВЫХ ВИДЕОПЛЕЕРАХ!!!

Параметры файла:
Название: Die Frau meiner Traeume (1944, rus_MVO+ger).mkv
Качество видео: HDTVRip-AVC
Формат видео: MKV
Размер: 1,45 ГБ (1 562 961 521 байт)
Продолжительность: 01:33:17
Перевод: Профессиональный (двухголосый закадровый) - Film Prestige
Субтитры: русские (только на песни)
Оригинальная аудиодорожка: немецкий
Видео: AVC (H264), 848x648 (4:3), 25 fps, 1850 kbps, 0.135 bit/pixel
Аудио #1: Dolby AC3, 48 kHz, stereo (2 ch), 192 kbps - русский
Аудио #2: Dolby AC3, 48 kHz, stereo (2 ch), 192 kbps - немецкий



General
Unique ID : 250628715857470072062703270901360184205 (0xBC8D55BAA6B8D0A1B05253E4C5A94B8D)
Complete name : D:\torrents\Die Frau meiner Traeume (1944, rus_MVO+ger).mkv
Format : Matroska
Format version : Version 4 / Version 2
File size : 1.46 GiB
Duration : 1 h 33 min
Overall bit rate : 2 234 kb/s
Encoded date : UTC 2018-12-17 12:49:22
Writing application : mkvmerge v6.7.0 ('Back to the Ground') 32bit built on Jan 8 2014 15:03:17
Writing library : libebml v1.3.0 + libmatroska v1.4.1

Video
ID : 1
Format : AVC
Format/Info : Advanced Video Codec
Format profile : High@L4.1
Format settings, CABAC : Yes
Format settings, RefFrames : 15 frames
Codec ID : V_MPEG4/ISO/AVC
Duration : 1 h 33 min
Bit rate : 1 850 kb/s
Width : 848 pixels
Height : 648 pixels
Display aspect ratio : 4:3
Frame rate mode : Constant
Frame rate : 25.000 FPS
Color space : YUV
Chroma subsampling : 4:2:0
Bit depth : 8 bits
Scan type : Progressive
Bits/(Pixel*Frame) : 0.135
Stream size : 1.18 GiB (81%)
Writing library : x264 core 146 r2538 121396c
Encoding settings : cabac=1 / ref=15 / deblock=1:0:0 / analyse=0x3:0x133 / me=umh / subme=10 / psy=1 / psy_rd=1.00:0.00 / mixed_ref=1 / me_range=24 / chroma_me=1 / trellis=2 / 8x8dct=1 / cqm=0 / deadzone=21,11 / fast_pskip=1 / chroma_qp_offset=-2 / threads=48 / lookahead_threads=5 / sliced_threads=0 / nr=0 / decimate=1 / interlaced=0 / bluray_compat=0 / constrained_intra=0 / bframes=8 / b_pyramid=2 / b_adapt=2 / b_bias=0 / direct=3 / weightb=1 / open_gop=0 / weightp=2 / keyint=250 / keyint_min=25 / scenecut=40 / intra_refresh=0 / rc_lookahead=60 / rc=2pass / mbtree=1 / bitrate=1850 / ratetol=1.0 / qcomp=0.60 / qpmin=0 / qpmax=69 / qpstep=4 / cplxblur=20.0 / qblur=0.5 / ip_ratio=1.40 / aq=1:1.00
Language : German
Default : Yes
Forced : No

Audio #1
ID : 2
Format : AC-3
Format/Info : Audio Coding 3
Format settings, Endianness : Big
Codec ID : A_AC3
Duration : 1 h 33 min
Bit rate mode : Constant
Bit rate : 192 kb/s
Channel(s) : 2 channels
Channel positions : Front: L R
Sampling rate : 48.0 kHz
Frame rate : 31.250 FPS (1536 SPF)
Bit depth : 16 bits
Compression mode : Lossy
Delay relative to video : 9 s 440 ms
Stream size : 128 MiB (9%)
Language : Russian
Service kind : Complete Main
Default : Yes
Forced : No

Audio #2
ID : 3
Format : AC-3
Format/Info : Audio Coding 3
Format settings, Endianness : Big
Codec ID : A_AC3
Duration : 1 h 33 min
Bit rate mode : Constant
Bit rate : 192 kb/s
Channel(s) : 2 channels
Channel positions : Front: L R
Sampling rate : 48.0 kHz
Frame rate : 31.250 FPS (1536 SPF)
Bit depth : 16 bits
Compression mode : Lossy
Delay relative to video : 9 s 440 ms
Stream size : 128 MiB (9%)
Language : German
Service kind : Complete Main
Default : No
Forced : No

Text
ID : 4
Format : UTF-8
Codec ID : S_TEXT/UTF8
Codec ID/Info : UTF-8 Plain Text
Default : Yes
Forced : No








МОИ РАЗДАЧИ НА ФЕНИКСе: ЗДЕСЬ




Это сообщение отредактировал SanSan48 - 17.12.2018 - 15:59


--------------------
"Спартак" - ЧЕМПИОН!!!

Скрыть подпись
pushistiy
№2 Отправлено: 17.12.2018 - 16:30


Старожил

Группа: Потребители
Регистрация: 8.12.2013
Сообщений: 966
Последний раз был:
cегодня в 06:42




Ага, любимый фильм тов.Штирлица ! happy_fly.gif Как-же, как-же - непгеменно надоть посмотреть (хоша-бы разок, уж ежли не шесть раз, аки Штирлиц) wow.gif
P.S. Надо, конечно, отдать должное Марике Рёкк, не засветившейся ни в одной нацистско-пропагандистстской картине. Только вот. Алекс Юстасу (или наоборот,... не помню sad.gif ) ничего об этом не докладывал. pain25.gif
P.P.S. Ну, Штирлиц то, естессно, смотрел чёрно-белый вариант кино, да ещё и не дублированный - как же тут не появиться раздражению ?! gy.gif


Это сообщение отредактировал pushistiy - 17.12.2018 - 17:00
Top
SanSan48
№3 Отправлено: 17.12.2018 - 17:05


"Спартак" - ЧЕМПИОН!!!

Группа: Пользователи
Регистрация: 28.12.2009
Сообщений: 2043
Обитает:
Последний раз был:
cегодня в 12:43




Цитата
( pushistiy @ 17.12.2018 - 16:30)
Ага, любимый фильм тов.Штирлица ! happy_fly.gif Как-же, как-же - непгеменно надоть посмотреть (хоша-бы разок, уж ежли не шесть раз, аки Штирлиц) wow.gif
P.S. Надо, конечно, отдать должное Марике Рёкк, не засветившейся ни в одной нацистско-пропагандистстской картине. Только вот. Алекс Юстасу (или наоборот,... не помню sad.gif ) ничего об этом не докладывал. pain25.gif
P.P.S. Ну, Штирлиц то, естессно, смотрел чёрно-белый вариант кино, да ещё и не дублированный - как же тут не появиться раздражению ?! gy.gif

pushistiy, спасибо за подробный и хороший комментарий!

А как скачалось? Всё ли с архивами в порядке? Надеюсь нормально...


--------------------
"Спартак" - ЧЕМПИОН!!!

Скрыть подпись
Top
pushistiy
№4 Отправлено: 17.12.2018 - 17:11


Старожил

Группа: Потребители
Регистрация: 8.12.2013
Сообщений: 966
Последний раз был:
cегодня в 06:42




Цитата
SanSan48 @ 17.12.2018 - 17:05
как скачалось? Всё ли с архивами в порядке? Надеюсь нормально...

Да всё замечательно, только вот Штирлица, опять же понять можно :
Ну представьте - приходишь в очередной раз на сеанс, думаешь, ну теперь то уж...ведь сколько раз доктора Геббельса просил... и опять то-же самое ! nunu.gif
Надо быть настоящим разведчиком имея такое терпение ! uzhas.gif


Это сообщение отредактировал pushistiy - 17.12.2018 - 17:11
Top
1 человек просматривает эту тему (1 гость)
« Предыдущая тема | Зарубежные фильмы | Следующая тема »


 



[Script Execution time: 0,0574]   [24 queries used]   [GZIP enabled]