Заходят многие - остаются лучшие!
Здравствуйте Гость ( Вход | Регистрация ) Выслать повторно письмо для активации
Вход
Ваше имя Пароль Забыли пароль?
Запомнить Вас?
Войти скрытым?



Новые сообщения раздела  

 

 Жизнь одного медоеда / National Geographic. Ultimate Honey Badger (2013), National Geographic
bornik
  №1 Отправлено: 9.10.2017 - 17:33


Воспоминания - это богатства старости.

Группа: Модераторы
Регистрация: 18.08.2008
Сообщений: 947
Обитает:
Последний раз был:
cегодня в 03:12




Жизнь одного медоеда / National Geographic. Ultimate Honey Badger (2013)



«Жизнь одного медоеда» - это лысые барсуки. Малыши живут со своей мамой один год. Мама научит детёныша охотиться и драться. Однако у малыша кожица мягкая, и поэтому они могут стать лёгкой добычей змей и всевозможных хищников. Поэтому мамы защищают детей, пока их кожа в достаточной мере не отвердеет. Но молодые медоеды не могут выживать в одиночку. А так случилось, что у самки медоеда Бэджи маму убили, а детёныш ещё совсем мал. Как же она будет выживать? Это нам и продемонстрирует National Geographic.

Название: Жизнь одного медоеда
Оригинальное название: Ultimate Honey Badger
Год выпуска: 2013
Жанр: Документальный, природа, фауна, флора
Выпущено: ЮАР, National Geographic Television, Earth Touch USA
Продолжительность: 00:43:47
Субтитры: Русские (мои)

Режиссёр: Грэм Дуан / Graeme Duane
Продюсер: Джесс Райс / Jess Reiss

Программа озвучена студией "Велес"

Описание: Этот шедевр о дикой природе приоткрывает завесу тайной жизни одного из самых уникальных и интересных созданий на нашей планете. Самка медоеда по имени Бэджи вместе со своими сородичами является легендой саванн в жаркой Африке. Удивительные животные выбрали местом своего постоянного обитания засушливую и обширную пустыню Калахари. Они бесстрашные, сильные, храбрые и своенравные. Первые годы жизни маленькие медоеды проводят под заботливым материнским присмотром. В противном случае у них было бы очень мало шансов на выживаемость, несмотря на природную врожденную выносливость и приспособляемость. Но затем детеныши подрастают и начинают вести самостоятельную и активную охоту на свою добычу, обучаясь у более взрослых и опытных товарищей (в особенности у мамы). В их пищевой рацион входят даже опасные и ядовитые гадюки. Медоед в конечном итоге вырастает в крупного боевого хищника, который никогда не повернется спиной к врагу и обязательно даст отпор любому обидчику. Маленькая героиня этого фильма Бэджи оказалась в критической и нетипичной для медоедов ситуации. Стая собак напала на ее маму, когда детке было всего несколько недель после рождения. Фильм рассказывает подлинную историю жизни этого маленького и одинокого создания, которое вынуждено один на один сразиться с опасностями неизведанной дикой природы и ее суровыми обитателями.








General
Complete name : C:\DVD documental fimls\Жизнь одного медоеда\Жизнь одного медоеда (2013).avi
Format : AVI
Format/Info : Audio Video Interleave
File size : 721 MiB
Duration : 43mn 47s
Overall bit rate : 2 302 Kbps
Writing application : VirtualDubMod 1.5.10.2 (build 2540/release)
Writing library : VirtualDubMod build 2540/release

Video
ID : 0
Format : MPEG-4 Visual
Format profile : Advanced Simple@L5
Format settings, BVOP : 2
Format settings, QPel : No
Format settings, GMC : No warppoints
Format settings, Matrix : Default (H.263)
Muxing mode : Packed bitstream
Codec ID : XVID
Codec ID/Hint : XviD
Duration : 43mn 47s
Bit rate : 2 101 Kbps
Width : 720 pixels
Height : 400 pixels
Display aspect ratio : 16:9
Frame rate : 25.000 fps
Color space : YUV
Chroma subsampling : 4:2:0
Bit depth : 8 bits
Scan type : Progressive
Compression mode : Lossy
Bits/(Pixel*Frame) : 0.292
Stream size : 658 MiB (91%)
Writing library : XviD 65

Audio
ID : 1
Format : MPEG Audio
Format version : Version 1
Format profile : Layer 3
Mode : Joint stereo
Mode extension : MS Stereo
Codec ID : 55
Codec ID/Hint : MP3
Duration : 43mn 46s
Bit rate mode : Constant
Bit rate : 192 Kbps
Channel(s) : 2 channels
Sampling rate : 48.0 KHz
Compression mode : Lossy
Stream size : 60.1 MiB (8%)
Alignment : Aligned on interleaves
Interleave, duration : 40 ms (1.00 video frame)
Interleave, preload duration : 504 ms
Writing library : LAME3.98r
Encoding settings : -m j -V 4 -q 3 -lowpass 18.6 -b 192


Записались на автоматическое включение в очередь: Alevtina, Nadejdaenergia, baziss, grival406, медикус

Если вы хотите, чтобы вас автоматически ставили в очередь на следующие фильмы о природе,
- сообщите об этом в теме последней раздачи.


=================================

Исходником послужил релиз HDTV, найденный на просторах инета!

Архивы созданы RAR-архиватором с добавлением 3% на восстановление и снабжены sfv-проверочником.
Просьба к первому скачавшему отписаться о сохранности архивов на источнике раздачи.


ПРИЯТНОГО ВСЕМ ПРОСМОТРА !!!




--------------------
Безоблачная старость – это миф,
Поскольку наша память – ширь морская,
И к ночи начинается прилив,
Со дна обломки прошлого таская.
Игорь Губерман

Скрыть подпись


lmilchin
№2 Отправлено: 9.10.2017 - 18:06


Посетитель

Группа: Пользователи
Регистрация: 12.11.2009
Сообщений: 109
Обитает:
Последний раз был:
вчера в 23:41




Bornik, спасибо. Архив в порядке.
Top
bornik
№3 Отправлено: 9.10.2017 - 19:47


Воспоминания - это богатства старости.

Группа: Модераторы
Регистрация: 18.08.2008
Сообщений: 947
Обитает:
Последний раз был:
cегодня в 03:12




Цитата
( lmilchin @ 9.10.2017 - 18:06)
Bornik, спасибо. Архив в порядке.

И Вам, lmilchin, спасибо за добрую весть. happy_fly.gif


--------------------
Безоблачная старость – это миф,
Поскольку наша память – ширь морская,
И к ночи начинается прилив,
Со дна обломки прошлого таская.
Игорь Губерман

Скрыть подпись
Top
1 человек просматривает эту тему (1 гость)
« Предыдущая тема | Мир вокруг нас | Следующая тема »


 



[Script Execution time: 0,0309]   [22 queries used]   [GZIP enabled]