Заходят многие - остаются лучшие!
Здравствуйте Гость ( Вход | Регистрация ) Выслать повторно письмо для активации
Вход
Ваше имя Пароль Забыли пароль?
Запомнить Вас?
Войти скрытым?



 Правила раздела Новые сообщения раздела  


 

 Моби Дик / Moby Dick (1930), Джон Бэрримор, Джоан Беннетт
surzhoks
  №1 Отправлено: 15.09.2019 - 11:58


Живёт здесь

Группа: Аксакалы
Регистрация: 17.03.2008
Сообщений: 1172
Обитает:
Последний раз был:
cегодня в 08:19




Моби Дик / Moby Dick


Страна: США
Студия: Warner Bros. Pictures
Жанр: драма, приключения
Год выпуска: 1930
Продолжительность: 01:17:37
Режиссер: Ллойд Бэйкон / Lloyd Bacon
В ролях:
Джон Бэрримор / John Barrymore ... Captain Ahab Ceely
Джоан Беннетт / Joan Bennett ... Faith
Ллойд Хьюз / Lloyd Hughes ... Derek
Ноубл Джонсон / Noble Johnson ... Queequeg
Найджел Де Брулир / Nigel De Brulier ... Elijah
Уолтер Лонг / Walter Long ... Stubbs
Мэй Боли / May Boley ... Whale Oil Rosie
Том О’Брайэн / Tom O'Brien ... Starbuck
Вирджиния Сейл / Virginia Sale ... Old Maid
Джон Инс / John Ince ... Reverend Mapple

Описание: Во время пребывания в Нью-Бедфорде симпатичный негодяй Ахаб встречает и влюбляется в Фэйт Мэппл - дочь местного священника и возлюбленную брата Ахаба Дерека. Сама Фэйт быстро отвечает взаимностью на любовь Ахаба, так как Дерек кажется ей скучным и неблагородным. Однако во время своего очередного плавания Ахаб теряет ногу в схватке с Белым китом — Моби Диком. Когда по возвращении в Нью-Бедфорд он ошибочно считает, что Фейт не хочет иметь с ним ничего общего из-за его уродства, Ахаб возвращается в море с единственной целью - найти и убить огромного белого кита.
Вольная экранизация одноимённого романа Германа Мелвилла.

Доп. информация:
Огромное спасибо всем причастным к релизу:
рип - Магда,
перевод и озвучивание фильма- Алексей Яковлев,
работа со звуком и реавторинг DVD - AlekceyR76,
финансовая поддержка перевода и озвучивания фильма:
Магда, Lafajet, jasenka, yanaelisa, voostorg, Ugo927, борюська, exact, leoder, Nmaska, cementit, митя, duum100, Floret, Лямдазонд, mumzik69, spartakeynoir, sindzi, surzhoks, елена 22

Архивы созданы RAR-архиватором с добавлением 3% на восстановление и снабжены sfv-проверочником.
Просьба к первому скачавшему отписаться о сохранности архивов на источнике раздачи.

Раздача рассчитана на 2 месяца. На просмотр линка и скачивание 5 дней!
В случае если вы встали в очередь, а затем отказываетесь от скачивания без объяснения причин, возможен отказ в последующих моих раздачах.



Полное имя :Moby Dick.avi
Формат : AVI
Формат/Информация : Audio Video Interleave
Размер файла : 1,37 Гбайт
Продолжительность : 1 ч. 17 м.
Общий поток : 2527 Кбит/сек
Программа кодирования : VirtualDubMod 1.5.10.3 | www.virtualdub-fr.org || (build 2550/release)
Библиотека кодирования : VirtualDubMod build 2550/release

Видео
Идентификатор : 0
Формат : MPEG-4 Visual
Профиль формата : Advanced Simple@L5
Параметр BVOP формата : 2
Параметр QPel формата : Нет
Параметр GMC формата : Без точки перехода
Параметр матрицы формата : Default (H.263)
Идентификатор кодека : DX50
Идентификатор кодека/Подсказка : DivX 5
Продолжительность : 1 ч. 17 м.
Битрейт : 2129 Кбит/сек
Ширина : 640 пикселей
Высота : 480 пикселей
Соотношение сторон : 4:3
Частота кадров : 23,976 кадра/сек
Цветовое пространство : YUV
Субдискретизация насыщенности : 4:2:0
Битовая глубина : 8 бит
Тип развёртки : Прогрессивная
Метод сжатия : С потерями
Бит/(Пиксели*Кадры) : 0.289
Размер потока : 1,15 Гбайт (84%)
Библиотека кодирования : XviD 73

Аудио #1
Идентификатор : 1
Формат : AC-3
Формат/Информация : Audio Coding 3
Расширение режима : CM (complete main)
Параметр Endianness формата : Big
Идентификатор кодека : 2000
Продолжительность : 1 ч. 17 м.
Вид битрейта : Постоянный
Битрейт : 192 Кбит/сек
Каналы : 2 канала
Расположение каналов : Front: L R
Частота : 48,0 КГц
Битовая глубина : 16 бит
Метод сжатия : С потерями
Размер потока : 107 Мбайт (8%)
Выравнивание : Разделение по промежуткам
Продолжительность промежутка : 42 мс. (1,00 видеокадр)
Время предзагрузки промежутка : 500 мс.

Аудио #2
Идентификатор : 2
Формат : AC-3
Формат/Информация : Audio Coding 3
Расширение режима : CM (complete main)
Параметр Endianness формата : Big
Идентификатор кодека : 2000
Продолжительность : 1 ч. 17 м.
Вид битрейта : Постоянный
Битрейт : 192 Кбит/сек
Каналы : 2 канала
Расположение каналов : Front: L R
Частота : 48,0 КГц
Битовая глубина : 16 бит
Метод сжатия : С потерями
Размер потока : 107 Мбайт (8%)
Выравнивание : Разделение по промежуткам
Продолжительность промежутка : 42 мс. (1,00 видеокадр)
Время предзагрузки промежутка : 500 мс.




vjub58
№2 Отправлено: 15.09.2019 - 14:47


Практикующий эсквайр

Группа: Аксакалы
Регистрация: 6.12.2005
Сообщений: 5220
Обитает:
Последний раз был:
вчера в 23:34




Спасибо, все ОК. pozdrav_buket.gif
Top
1 человек просматривает эту тему (1 гость)
« Предыдущая тема | Зарубежные фильмы | Следующая тема »


 



[Script Execution time: 0,0474]   [23 queries used]   [GZIP enabled]